Welcome Guest ( Log In | Register )

> Nihilifer - Subterfacto​.​declive (2018), Black/Death Metal
post Jul 9 2018, 21:47:27
Post #1

Правь статус, ####!111
**************
Group: Металариец
Posts: 3,329
Releases: 662
From: Brazil
On Forums: 6 years 8 months
Thanks: 26179 time(s)
Brazil


(IMG:https://metalarea.org/images/audiocovers/2018_Jul/acov_tid308029_thumb.jpg)

*Artist: Nihilifer
*Album: Subterfacto​.​declive
*Year: 2018
*Genre: Black/Death Metal
*Country: Chile (IMG:https://metalarea.org/forum/style_images/flags/Chile.png)
*Format: mp3@CBR320kbps
*Size: 127MB

Tracklist:
1. Deconstrucción de la trascendencia 09:29
2. El templo de la confusión 06:25
3. Emanación Qliphothica 06:47
4. Exacerbación ego-distónica 05:20
5. Reformación raigámbrica 06:03
6. Síntesis de fuego y carne 08:11
7. La quimera de los deseos 10:20
8. Voluntad crepuscular 01:42
******************************
Total playing time: 54:17



Extended info
Throats Productions

Line up

G.C. Bass, Vocals (2013-present)
See also: Dead Moon Temple, ex-Ritualism, ex-Sarcoma Corpus

Diego Bizarro Drums (2013-present)
See also: Dead Moon Temple, ex-Ritualism (live), ex-Sarcoma Corpus (live)

V.C. Guitars (2013-present)
See also: ex-Ritualism, ex-Sarcoma Corpus


Technical info
(IMG:https://metalarea.org/images/spectrogram/2018_Jul/1d6247eefe3b650065406b9063b7166a.png)
Input File: 08 Voluntad Crepuscular.mp3
Channels : 2
Sample Rate : 44100
Precision : 16-bit
Duration : 00:01:55.08 = 5074808 samples = 8630.63 CDDA sectors
File Size : 4.90M
Bit Rate : 341k
Sample Encoding: MPEG audio (layer I, II or III)
Comments :
Title=Voluntad Crepuscular
Artist=Nihilifer
Album=Subterfacto​.​declive
Tracknumber=8
Year=2018



Register


Go to the top of the page
  Insert nick Quick quote
+Quote Post
 
Start new topic
Replies (1 - 1)
post Jul 10 2018, 21:31:28
Post #2

Два Литра
**
Group: Металариец
Posts: 131
Releases: 3
From: Ex Abyssia
On Forums: 8 years 2 months
Thanks: 188 time(s)
Mexico


Hey lestllk, where's your blog?
Go to the top of the page
  Insert nick Quick quote
+Quote Post

Reply to this topicStart new topic
2 User(s) are reading this topic (2 Guests and 0 Anonymous Users)
0 Members:

 



- Lo-Fi Version Support form
Copyrights and abuse reports form
Time is now: 22nd October 2018 - 15:14:03