Welcome Guest ( Log In | Register )

> Releases Upload / Добавление релизов

Добавить релиз тут / Click here to add release
Рекомендованные обменники / Recommended file shares

> Dead Moon Temple - Ænigmasólvoid (2018), Black Metal
post Jul 9 2018, 22:00:48
Post #1

Правь статус, ####!111
**************
Group: Металариец
Posts: 3,242
Releases: 600
From: Brazil
On Forums: 6 years 5 months
Thanks: 24351 time(s)
Brazil


(IMG:https://metalarea.org/images/audiocovers/2018_Jul/acov_tid308031_thumb.jpg)

*Artist: Dead Moon Temple
*Album: Ænigmasólvoid
*Year: 2018
*Genre: Black Metal
*Country: Chile (IMG:https://metalarea.org/forum/style_images/flags/Chile.png)
*Format: mp3@CBR320kbps
*Size: 124MB

Tracklist:
1. Ænigma 01:43
2. Darkness Shows the Path 07:01
3. Obelisk of Grief 06:03
4. Nothing but the Void 06:37
5. Dissociative Introjection 06:53
6. The Sun Inside 08:04
7. Omniscient Resonance 06:52
8. Where the Moonlight Dies 09:26
******************************
Total playing time: 52:39



Extended info
Line up

Egregor of Sun Bass (2013-present)
See also: Nihilifer, ex-Ritualism, ex-Sarcoma Corpus

Egregor of Pyre Drums (2013-present)
See also: Nihilifer, ex-Ritualism (live), ex-Sarcoma Corpus (live)

Egregor of Mourning Guitars (2013-present), Vocals (2013-present)
See also: Funestus, Myst, Praecognitvm, ex-Kizin


Technical info
(IMG:https://metalarea.org/images/spectrogram/2018_Jul/c97b2f1ac25b4dedb023cd1e42a4e056.png)
Input File: 03 Obelisk of Grief.mp3
Channels : 2
Sample Rate : 44100
Precision : 16-bit
Duration : 00:06:05.08 = 16100072 samples = 27381.1 CDDA sectors
File Size : 15.0M
Bit Rate : 329k
Sample Encoding: MPEG audio (layer I, II or III)
Comments :
Title=Obelisk of Grief
Artist=Dead Moon Temple
Album=Ænigmasólvoid
Tracknumber=3
Year=2018



Register


Go to the top of the page
  Insert nick Quick quote
+Quote Post
 
Start new topic
Replies (1 - 7)
post Jul 10 2018, 06:19:09
Post #2

Аннигилятор пивА
Group Icon
Group: V.I.P
Posts: 47,424
Releases: 14292
From: Koenigsberg - TILZIT
On Forums: 12 years 1 month
Thanks: 316447 time(s)
Russian Federation


122mb/320
Register


Go to the top of the page
  Insert nick Quick quote
+Quote Post
post Jul 10 2018, 13:59:48
Post #3

Detective Godzilla
**************
Group: Металариец
Posts: 2,459
Releases: 168
On Forums: 7 years 5 months
Thanks: 4830 time(s)
Russian Federation


Очень зашел релиз. Уже года полтора пытаюсь связаться с их издателем, попытаться договориться о промо, но там "гудки"


Thanks:
(1) SSBandera,
Go to the top of the page
  Insert nick Quick quote
+Quote Post
post Jul 10 2018, 14:30:47
Post #4


***********
Group: Металариец
Posts: 1,545
Releases: 14
From: Казань
On Forums: 8 years 10 months
Thanks: 1959 time(s)
Russian Federation


В лабиринте Экзистенции. Мелодии словно свечки - гаснут и возрождаются. Сквозит Дух Acherontas, но в более "живой" интерпретации, без многомерности куплетов, бесконечно длинных


Thanks:
(1) SSBandera,
Go to the top of the page
  Insert nick Quick quote
+Quote Post
post Jul 10 2018, 15:51:52
Post #5

..ще до загибелі
**********
Group: Металариец
Posts: 1,147
Releases: 0
From: Мати Руських Міст
On Forums: 7 years 4 months
Thanks: 866 time(s)
Ukraine


крута, даже как-то не по чилийски, несмотря на то, что по чилийски - тож крута))
Go to the top of the page
  Insert nick Quick quote
+Quote Post
post Jul 10 2018, 18:31:37
Post #6

Победитель судьбы
**************
Group: Металариец
Posts: 5,021
Releases: 0
From: Страны Мамонтов
On Forums: 11 years 5 months
Thanks: 1707 time(s)
Antarctica


Все трое - Григории, только фамилии разные


Thanks:
(1) Ulv,
Go to the top of the page
  Insert nick Quick quote
+Quote Post
post Jul 10 2018, 18:36:42
Post #7

Четыре Литра
****
Group: Металариец
Posts: 357
Releases: 0
On Forums: 10 years 8 months
Thanks: 60 time(s)
Norway


QUOTE(avather @ Jul 10 2018, 10:31:37) *
Все трое - Григории, только фамилии разные


(IMG:style_emoticons/default/1488.gif)
Go to the top of the page
  Insert nick Quick quote
+Quote Post
post Jul 13 2018, 16:05:55
Post #8

Два Литра
**
Group: Завсегдатай
Posts: 194
Releases: 0
On Forums: 1 year 1 month
Thanks: 70 time(s)
Russian Federation


неожиданно недурно от чилийцев. не шедевр, но хорошо заходит
Go to the top of the page
  Insert nick Quick quote
+Quote Post

Reply to this topicStart new topic
1 User(s) are reading this topic (1 Guests and 0 Anonymous Users)
0 Members:

 



- Lo-Fi Version Support form
Copyrights and abuse reports form
Time is now: 22nd July 2018 - 10:05:44