Welcome Guest ( Log In | Register )

> Firtan - Okeanos (2018), Pagan/Black Metal (D4)
post Jul 9 2018, 22:14:42
Post #1

Правь статус, ####!111
**************
Group: Металариец
Posts: 3,298
Releases: 643
From: Brazil
On Forums: 6 years 7 months
Thanks: 25552 time(s)
Brazil


(IMG:https://metalarea.org/images/audiocovers/2018_Jul/acov_tid308032_thumb.jpg)

*Artist: Firtan
*Album: Okeanos
*Year: 2018
*Genre: Pagan/Black Metal
*Country: Germany (IMG:https://metalarea.org/forum/style_images/flags/Germany.png)
*Format: mp3@CBR320kbps
*Size: 96MB

Tracklist:
1. Seegang 08:36
2. Tag Verweil 05:40
3. Nacht Verweil 06:21
4. Purpur 02:56
5. Uferlos 07:01
6. Siebente, letzte Einsamkeit 09:42
******************************
Total playing time: 40:16




Extended info
Art of Propaganda

Firtan are one of Germany's most uprising extreme metal acts, delivering their very own mixture of styles to fans all over Europe since 2010. Having supported Rotting Christ, Imperium Dekadenz, and Der Weg einer Freiheit and played festivals like Summer Breeze and Metaldays, their sound originates from black metal involving atmospheric and progressive elements alongside intense vocal performances and accentuating ambient sounds. Firtan known for their intensive live shows, which, to date, they have delivered to ten European countries.

Now, after two EPs and one full-length, Firtan hereby present their strongest work, Okeanos. Inspired by avant-garde intellectuals like Nietzsche and Lovecraft, Okeanos is a dazzling display of epic black metal grandeur, suffused with autumnal atmosphere and winding-yet-captivating compositions. But, although deeply rooted in black metal, the overt muscle Firtan display here - not to mention the panoramic approach to songwriting, daring and boundless - helps Okeanos elude easy categorization. It's an immediately captivating experience, expanding the listener's consciousness whilst whisking the listener away to worlds yet unexplored. And its soundfield is as robust as it is majestic, which is no surprise considering it was recorded at the esteemed studio Klangschmiede E with Markus Stock of The Vision Bleak/Empyrium. At six songs in 40 breathtaking minutes, Okeanos is the album by which Firtan enter into the elite.


Recording information:

All music except violins and choirs composed and arranged by Phillip Thienger & Firtan.
Drums & vocals recorded during winter 2017 at Klangschmiede Studio E with Markus Stock.
Guitars recorded by Florian Hein, bass & violin recorded by Oliver König and choirs recorded by André Groschopp.


Technical info
(IMG:https://metalarea.org/images/spectrogram/2018_Jul/e1dd07236546164d5ccffea34416d51d.png)
Input File: 02 Tag Verweil.mp3
Channels : 2
Sample Rate : 44100
Precision : 16-bit
Duration : 00:05:40.08 = 14997528 samples = 25506 CDDA sectors
File Size : 14.1M
Bit Rate : 332k
Sample Encoding: MPEG audio (layer I, II or III)
Comments :
Title=Tag Verweil
Artist=Firtan
Album=Okeanos
Tracknumber=2
Year=2018



Register


Go to the top of the page
  Insert nick Quick quote
+Quote Post
 
Start new topic
Replies (1 - 4)
post Jul 10 2018, 05:53:32
Post #2

Аннигилятор пивА
Group Icon
Group: V.I.P
Posts: 48,790
Releases: 14916
From: Koenigsberg - TILZIT
On Forums: 12 years 3 months
Thanks: 326969 time(s)
Russian Federation


Progressive Black Metal
320/93MB
Register


Go to the top of the page
  Insert nick Quick quote
+Quote Post
post Jul 10 2018, 16:43:46
Post #3

Маньяк
**********
Group: Металариец
Posts: 1,111
Releases: 0
From: Беларусь
On Forums: 10 years 8 months
Thanks: 400 time(s)
Russian Federation


На бэндкэмпе Блэка нету. Какой-то металкор
Go to the top of the page
  Insert nick Quick quote
+Quote Post
post Jul 10 2018, 18:22:42
Post #4

Победитель судьбы
**************
Group: Металариец
Posts: 5,070
Releases: 0
From: Страны Мамонтов
On Forums: 11 years 7 months
Thanks: 1738 time(s)
Antarctica


ЦИТАТА(Moonshtook @ Jul 10 2018, 19:43:46) *
На бэндкэмпе Блэка нету.

(IMG:https://pbs.twimg.com/media/Dfk4VRBV4AAzmIz.png)
Go to the top of the page
  Insert nick Quick quote
+Quote Post
post Jul 11 2018, 10:15:10
Post #5

Маньяк
**********
Group: Металариец
Posts: 1,303
Releases: 0
From: Dnipro
On Forums: 10 years 2 months
Thanks: 359 time(s)
Ukraine


ЦИТАТА(Moonshtook @ Jul 10 2018, 18:43:46) *
На бэндкэмпе Блэка нету. Какой-то металкор
Проверено, металкора нет (IMG:style_emoticons/default/bye.gif)
Go to the top of the page
  Insert nick Quick quote
+Quote Post

Reply to this topicStart new topic
1 User(s) are reading this topic (1 Guests and 0 Anonymous Users)
0 Members:

 



- Lo-Fi Version Support form
Copyrights and abuse reports form
Time is now: 20th September 2018 - 11:20:36