Welcome Guest ( Log In | Register )

> Obscure Illusions - Obscure Illusions (2018), Progressive/Heavy Metal
post Jul 10 2018, 04:10:53
Post #1

Аннигилятор пивА
Group Icon
Group: V.I.P
Posts: 50,307
Releases: 15596
From: Koenigsberg - TILZIT
On Forums: 12 years 5 months
Thanks: 338999 time(s)
Russian Federation


(IMG:http://metalarea.org/images/audiocovers/2018_Jul/acov_tid308036_thumb.jpg)

*Artist: Obscure Illusions
*Album: Obscure Illusions
*Year: 2018
*Genre: Progressive/Heavy Metal
*Country: Canada (IMG:http://metalarea.org/forum/style_images/flags/Canada.png)
*Format: mp3@CBR320kbps
*Size: 105MB

Tracklist:
01. (Winds) Wanderers
02. Fifth Circle
03. Leaving Here
04. The Path of Oblivion
05. Monochrome
06. Jester
07. Mnemonic Device
08. Unstable
09. Obscure
10. World for Dogs (Governed by Pigs)
******************************
Total playing time: 48:02



Extended info
The group is influenced by a wide variety of bands and styles of music going from punk music to metal music meeting classic rock,hard rock,power metal and even prog rock along the way to create a hybrid metal band with all those influences mixed into their original songs.

Alain St-Coeur - Lead / Rythm Guitars
Julien Savoie - Lead / Rythm Guitars & Vocals
Fred Fournier - Bass Guitar
Christian Rouselle - Drums


Technical info
(IMG:http://metalarea.org/images/spectrogram/2018_Jul/4359af6f3224856b50edb1f958797e91.png)
Input File: 02. Fifth Circle.mp3
Channels : 2
Sample Rate : 44100
Precision : 16-bit
Duration : 00:04:04.05 = 10762561 samples = 18303.7 CDDA sectors
File Size : 9.85M
Bit Rate : 323k
Sample Encoding: MPEG audio (layer I, II or III)
Comments :
Title=Fifth Circle
Artist=Obscure Illusions
Album=Obscure Illusions
Tracknumber=2
Genre=Метал
Discnumber=1



Register


Go to the top of the page
  Insert nick Quick quote
+Quote Post
 
Start new topic
Replies (1 - 1)
post Jul 11 2018, 08:40:43
Post #2

hearer & reader
**************
Group: Металариец
Posts: 7,120
Releases: 91
From: Moscow
On Forums: 11 years 2 months
Thanks: 6771 time(s)
Russian Federation


Канал https://www.youtube.com/channel/UCB-HZuPrPVJ3DNMDEsfWqUg
Go to the top of the page
  Insert nick Quick quote
+Quote Post

Reply to this topicStart new topic
1 User(s) are reading this topic (1 Guests and 0 Anonymous Users)
0 Members:

 



- Lo-Fi Version Support form
Copyrights and abuse reports form
Time is now: 16th November 2018 - 02:08:19