Welcome Guest ( Log In | Register )

> Releases Upload / Добавление релизов

Добавить релиз тут / Click here to add release
Рекомендованные обменники / Recommended file shares

> Maniaxe - Canticles Of Corruption (2018), Old School Thrash Metal
post Jul 10 2018, 05:43:00
Post #1

Аннигилятор пивА
Group Icon
Group: V.I.P
Posts: 47,424
Releases: 14292
From: Koenigsberg - TILZIT
On Forums: 12 years 1 month
Thanks: 316446 time(s)
Russian Federation


(IMG:http://metalarea.org/images/audiocovers/2018_Jul/acov_tid308037_thumb.jpg)

*Artist: Maniaxe
*Album: Canticles Of Corruption
*Year: 2018
*Genre: Old School Thrash Metal
*Country: Australia (IMG:http://metalarea.org/forum/style_images/flags/Australia.png)
*Format: mp3@CBR320kbps
*Size: 86MB

Tracklist:
01. Intro
02. Maggots of God
03. Heavy Metal Onslaught
04. Black Death Saviour
05. Apocalyptic Vision
06. Six Shots of Vengeance
07. Impaler
08. God Save The Antichrist
09. Hypnosis
10. Hail Goatlord
******************************
Total playing time: 36:43



Extended info
Gabriel - Bass
Skull Crusher - Drums
Axe Maniac - Guitars, Vocals


Technical info
(IMG:http://metalarea.org/images/spectrogram/2018_Jul/664f47e48411f9a8ba46e609716fa22e.png)
Input File: 04.Black Death Saviour.mp3
Channels : 2
Sample Rate : 44100
Precision : 16-bit
Duration : 00:02:07.17 = 5608153 samples = 9537.68 CDDA sectors
File Size : 5.51M
Bit Rate : 347k
Sample Encoding: MPEG audio (layer I, II or III)
Comments :
Title=Black Death Saviour
Artist=Maniaxe
Album=Canticles Of Corruption
Tracknumber=4
Year=2018
Genre=Thrash Metal



Register


Go to the top of the page
  Insert nick Quick quote
+Quote Post
 
Start new topic
Replies (1 - 2)
post Jul 10 2018, 13:25:22
Post #2

Аннигилятор пивА
Group Icon
Group: V.I.P
Posts: 47,424
Releases: 14292
From: Koenigsberg - TILZIT
On Forums: 12 years 1 month
Thanks: 316446 time(s)
Russian Federation


MIRROR
Register




Go to the top of the page
  Insert nick Quick quote
+Quote Post
post Jul 10 2018, 19:56:18
Post #3

Аннигилятор пивА
Group Icon
Group: V.I.P
Posts: 47,424
Releases: 14292
From: Koenigsberg - TILZIT
On Forums: 12 years 1 month
Thanks: 316446 time(s)
Russian Federation


Мрачненько и первобытненько. Как показалось сильный реверанс в КРЕАТОР времен ПЛЕЖА ТУ КИЛ и СОДОМ того же периода. ЗАЧЕТ.


Thanks:
(1) DarkHorde,
Go to the top of the page
  Insert nick Quick quote
+Quote Post

Reply to this topicStart new topic
1 User(s) are reading this topic (1 Guests and 0 Anonymous Users)
0 Members:

 



- Lo-Fi Version Support form
Copyrights and abuse reports form
Time is now: 22nd July 2018 - 10:00:52