Welcome Guest ( Log In | Register )

> Asedio - Mi Nombre Es Legión (2018), Old School Death/Thrash Metal (D5)
post Jul 10 2018, 06:55:48
Post #1

Аннигилятор пивА
Group Icon
Group: V.I.P
Posts: 48,790
Releases: 14916
From: Koenigsberg - TILZIT
On Forums: 12 years 3 months
Thanks: 326969 time(s)
Russian Federation


(IMG:http://metalarea.org/images/audiocovers/2018_Jul/acov_tid308039_thumb.jpg)

*Artist: Asedio
*Album: Mi Nombre Es Legión
*Year: 2018
*Genre: Old School Death/Thrash Metal
*Country: Mexico (IMG:http://metalarea.org/forum/style_images/flags/Mexico.png)
*Format: mp3@CBR320kbps
*Size: 86MB

Tracklist:
1. Árido Infierno
2. Pensamientos Asesinos
3. Sangre Inocente
4. Anarquía
5. Los Crímenes Del Amor
6. Las Horas Violentas
7. Días De Furia
8. Contra La Muerte De La Luz
9. Mi Nombre Es Legión
******************************
Total playing time: 39:06



Extended info
Samuel Segura - Drums
Diego Valadez - Guitars
Andrés Ascencio - Guitars, Vocals
Raymundo Monroy - Bass (2015-present)



Technical info
(IMG:http://metalarea.org/images/spectrogram/2018_Jul/6d2cd532d5ab5446345b1999658c8224.png)
Input File: 06.Las Horas Violentas.mp3
Channels : 2
Sample Rate : 44100
Precision : 16-bit
Duration : 00:03:36.17 = 9533097 samples = 16212.8 CDDA sectors
File Size : 8.79M
Bit Rate : 325k
Sample Encoding: MPEG audio (layer I, II or III)
Comments :
Title=Las Horas Violentas
Artist=Asedio
Album=Mi Nombre Es Legión
Tracknumber=6
Year=2018
Genre=Death/Thrash Metal



Register


Go to the top of the page
  Insert nick Quick quote
+Quote Post
 
Start new topic
Replies (1 - 2)
post Jul 10 2018, 13:27:09
Post #2

Аннигилятор пивА
Group Icon
Group: V.I.P
Posts: 48,790
Releases: 14916
From: Koenigsberg - TILZIT
On Forums: 12 years 3 months
Thanks: 326969 time(s)
Russian Federation


mirror
Register


Go to the top of the page
  Insert nick Quick quote
+Quote Post
post Jul 11 2018, 10:08:58
Post #3

Маньяк
**********
Group: Металариец
Posts: 1,303
Releases: 0
From: Dnipro
On Forums: 10 years 2 months
Thanks: 359 time(s)
Ukraine


Вокал как то не сильно подходит сюда, да и кумарный он.
Go to the top of the page
  Insert nick Quick quote
+Quote Post

Reply to this topicStart new topic
1 User(s) are reading this topic (1 Guests and 0 Anonymous Users)
0 Members:

 



- Lo-Fi Version Support form
Copyrights and abuse reports form
Time is now: 20th September 2018 - 11:20:13