Welcome Guest ( Log In | Register )

> Releases Upload / Добавление релизов

Добавить релиз тут / Click here to add release
Рекомендованные обменники / Recommended file shares

> Вольга - Солнцеславие (2018), Folk/Groove Metal
post Jul 10 2018, 08:51:21
Post #1

Шесть Литров
******
Group: Металариец
Posts: 692
Releases: 241
From: Саранск
On Forums: 7 years 2 months
Thanks: 1803 time(s)
Russian Federation


(IMG:https://metalarea.org/images/audiocovers/2018_Jul/acov_tid308040_thumb.jpg)

*Artist: Вольга
*Album: Солнцеславие
*Year: 2018
*Genre: Folk/Groove Metal
*Country: Russian Federation (IMG:https://metalarea.org/forum/style_images/flags/Russian%20Federation.png)
*Format: mp3@CBR320kbps
*Size: 86MB

Tracklist:
1. Грезилось 02:51
2. Солнцеславие 05:22
3. Жаворонки 04:21
4. Как по горам 01:45
5. Ветры 04:11
6. Стрижочки 05:02
7. Сварожич 02:36
8. Роса 04:48
9. Полдень 04:45
10. Родник 04:22
******************************
Total playing time: 40:03


Preview 2

Technical info
(IMG:https://metalarea.org/images/spectrogram/2018_Jul/417a51c2cf1f5d1b53680d26198fc32b.png)
Input File: 06. Стрижочки.mp3
Channels : 2
Sample Rate : 44100
Precision : 16-bit
Duration : 00:05:02.67 = 13347923 samples = 22700.5 CDDA sectors
File Size : 12.2M
Bit Rate : 322k
Sample Encoding: MPEG audio (layer I, II or III)
Comments :
Title=Стрижочки
Artist=Вольга
Album=Солнцеславие
Tracknumber=06
Year=2018
Genre=Folk Metal



Register


Go to the top of the page
  Insert nick Quick quote
+Quote Post
 
Start new topic
Replies (1 - 2)
post Jul 10 2018, 16:40:50
Post #2

Маньяк
**********
Group: Металариец
Posts: 1,095
Releases: 0
From: Беларусь
On Forums: 10 years 6 months
Thanks: 395 time(s)
Russian Federation


Непонятно, по звуку та же Опричь. И зачем нужно было делать отдельный проект? Я конечно понимаю, что стиль придуман самими музыкантами, но группа тут нету, уж простите
Go to the top of the page
  Insert nick Quick quote
+Quote Post
post Jul 11 2018, 09:31:20
Post #3

Восемь Литров
********
Group: Металариец
Posts: 873
Releases: 42
On Forums: 11 years 4 months
Thanks: 705 time(s)
Ukraine


Долго игнорил, но таки любопытство одолело. Все подмывало услышать как звучит Пантера с балалайками? Да никак. Нет там ни грува ни балалаек. Вобщем-то я это и ожидал услышать. Модернявые риффы, которые не то что к груву, к металу сложно отнести (несмотря на низкий звук). Да фолк такой себе. Если убрать вокал, то какое-то гейропейское средневековье получается. Но уж точно не русиш фолк.


Thanks:
Go to the top of the page
  Insert nick Quick quote
+Quote Post

Reply to this topicStart new topic
2 User(s) are reading this topic (2 Guests and 0 Anonymous Users)
0 Members:

 



- Lo-Fi Version Support form
Copyrights and abuse reports form
Time is now: 22nd July 2018 - 10:03:07