Welcome Guest ( Log In | Register )

> Releases Upload / Добавление релизов

Добавить релиз тут / Click here to add release
Рекомендованные обменники / Recommended file shares

> Oubliette - The Passage (2018), Atmospheric/Melodic Black/Death Metal (D4)
post Jul 10 2018, 09:14:34
Post #1

Аннигилятор пивА
Group Icon
Group: V.I.P
Posts: 47,424
Releases: 14292
From: Koenigsberg - TILZIT
On Forums: 12 years 1 month
Thanks: 316446 time(s)
Russian Federation


(IMG:http://metalarea.org/images/audiocovers/2018_Jul/acov_tid308041_thumb.jpg)

*Artist: Oubliette
*Album: The Passage
*Year: 2018
*Genre: Atmospheric/Melodic Black/Death Metal
*Country: United States (IMG:http://metalarea.org/forum/style_images/flags/United%20States.png)
*Format: mp3@CBR192kbps
*Size: 59MB

Tracklist:
1. A Pale Innocence 02:16
2. The Curse 05:33
3. Solitude 05:23
4. Elegy 04:45
5. Emptiness 00:49
6. The Raven's Lullaby 07:15
7. Barren 06:41
8. The Passage 06:41
******************************
Total playing time: 39:23




Extended info
promo

Emily Low - Vocals
Mike Low - Guitars, Vocals (backing) (Inferi, ex-Enfold Darkness)
Todd Harris - Guitar (Battle Path)
Andrew Wampler - Guitar (Ophiuchus)
James Turk - Bass (Enfold Darkness, Chaos Moon, ex-Hobb's End, Laser Flames on the Great Big News, ex-Imbrued Deceit, ex-In Search of, ex-Phosphene)
Greg Vance - Drums (Enfold Darkness, Ominous Conception)


Technical info
(IMG:http://metalarea.org/images/spectrogram/2018_Jul/ec495aac41924a70a452ac993a4978b0.png)
Input File: 4.Elegy.mp3
Channels : 2
Sample Rate : 44100
Precision : 16-bit
Duration : 00:04:46.34 = 12627682 samples = 21475.6 CDDA sectors
File Size : 7.18M
Bit Rate : 201k
Sample Encoding: MPEG audio (layer I, II or III)
Comments :
Title=Elegy
Artist=Oubliette
Album=The Passage
Tracknumber=4
Year=2018
Genre=Black Metal



Register

320/95mb
Register


Go to the top of the page
  Insert nick Quick quote
+Quote Post
 
Start new topic
Replies (1 - 2)
post Jul 10 2018, 13:30:28
Post #2

Аннигилятор пивА
Group Icon
Group: V.I.P
Posts: 47,424
Releases: 14292
From: Koenigsberg - TILZIT
On Forums: 12 years 1 month
Thanks: 316446 time(s)
Russian Federation





Go to the top of the page
  Insert nick Quick quote
+Quote Post
post Jul 12 2018, 17:41:58
Post #3

Аннигилятор пивА
Group Icon
Group: V.I.P
Posts: 47,424
Releases: 14292
From: Koenigsberg - TILZIT
On Forums: 12 years 1 month
Thanks: 316446 time(s)
Russian Federation


320/95MB
Register

Register


Thanks:
Go to the top of the page
  Insert nick Quick quote
+Quote Post

Reply to this topicStart new topic
1 User(s) are reading this topic (1 Guests and 0 Anonymous Users)
0 Members:

 



- Lo-Fi Version Support form
Copyrights and abuse reports form
Time is now: 22nd July 2018 - 09:59:23