Welcome Guest ( Log In | Register )

> Releases Upload / Добавление релизов

Добавить релиз тут / Click here to add release
Рекомендованные обменники / Recommended file shares

 
Reply to this topicStart new topic
> Grind Insides - Sir, You Are Dead [ep] (2018), Goregrind (D5)
post Jul 10 2018, 11:18:25
Post #1

Serial Uploader
Group Icon
Group: V.I.P
Posts: 32,863
Releases: 31159
From: Lithuania
On Forums: 10 years 1 month
Thanks: 356969 time(s)
Lithuania


(IMG:https://metalarea.org/images/audiocovers/2018_Jul/acov_tid308042_thumb.jpg)

*Artist: Grind Insides
*Album: Sir, You Are Dead [ep]
*Year: 2018
*Genre: Goregrind
*Country: Hungary (IMG:https://metalarea.org/forum/style_images/flags/Hungary.png)
*Format: mp3@CBR320kbps
*Size: 6MB

Tracklist:
01. Wow You Are Really Dead, Do You Feel Okay? 00:25
02. Do You Have A Minute To Talk About Our Lord And Saviour, Satan-O-Meter? 00:45
03. Short Love Song 00:21
04. Gutted On Your Backyard. "Hey Gordon, There's A Crowbar In Your Guts!" 00:29
05. I Worked 3 Minutes On This Track... I.. I Spent 3 Minutes On This. Well I'm Proud. 00:22
******************************
Total playing time: 2:22



Technical info
(IMG:https://metalarea.org/images/spectrogram/2018_Jul/fc8dac93ca7775bf8a58cb6ab0b45b59.png)
Input File: 02. Do you have a minute to talk about our Lord and Saviour, Satan-o-meter-.mp3
Channels : 2
Sample Rate : 44100
Precision : 16-bit
Duration : 00:00:45.48 = 2005712 samples = 3411.07 CDDA sectors
File Size : 1.94M
Bit Rate : 341k
Sample Encoding: MPEG audio (layer I, II or III)
Comments :
Title=Do you have a minute to talk about our Lord and Saviour, Satan-o-meter?
Artist=Grind Insides
Album=Sir, You Are Dead
Tracknumber=2
Year=2018



Register


Thanks:
Go to the top of the page
  Insert nick Quick quote
+Quote Post

Reply to this topicStart new topic
1 User(s) are reading this topic (1 Guests and 0 Anonymous Users)
0 Members:

 



- Lo-Fi Version Support form
Copyrights and abuse reports form
Time is now: 22nd July 2018 - 10:06:20