Welcome Guest ( Log In | Register )

 
Reply to this topicStart new topic
> Decomposed Carcasses - The Executioner [ep] (2018), Goregrind (D5)
post Jul 10 2018, 11:38:32
Post #1

Serial Uploader
Group Icon
Group: V.I.P
Posts: 33,282
Releases: 31557
From: Lithuania
On Forums: 10 years 5 months
Thanks: 360512 time(s)
Lithuania


(IMG:https://metalarea.org/images/audiocovers/2018_Jul/acov_tid308043_thumb.jpg)

*Artist: Decomposed Carcasses
*Album: The Executioner [ep]
*Year: 2018
*Genre: Goregrind
*Country: Canada (IMG:https://metalarea.org/forum/style_images/flags/Canada.png)
*Format: mp3@CBR320kbps
*Size: 10MB

Tracklist:
01. Morbid Necrophiliac Obsessed With Bigfoot 01:33
02. Strangled 00:29
03. Executed By Trolls 01:29
04. The Executioner's Blast Beat 00:11
05. Festering Stench Of Rotting Flesh Infested With Maggots And Parasites 00:49
******************************
Total playing time: 4:31


(IMG:https://metalarea.org/images/youtube.png)

Technical info
(IMG:https://metalarea.org/images/spectrogram/2018_Jul/1085687c547994ff3eb028bdfdb54ab4.png)
Input File: 03. Executed By Trolls.mp3
Channels : 2
Sample Rate : 44100
Precision : 16-bit
Duration : 00:01:29.68 = 3955020 samples = 6726.22 CDDA sectors
File Size : 3.76M
Bit Rate : 336k
Sample Encoding: MPEG audio (layer I, II or III)
Comments :
Title=Executed By Trolls
Artist=Decomposed Carcasses.
Album=The Executioner EP
Tracknumber=3
Year=2018



Register


Thanks:
Go to the top of the page
  Insert nick Quick quote
+Quote Post

Reply to this topicStart new topic
1 User(s) are reading this topic (1 Guests and 0 Anonymous Users)
0 Members:

 



- Lo-Fi Version Support form
Copyrights and abuse reports form
Time is now: 16th November 2018 - 03:02:10