Welcome Guest ( Log In | Register )

 
Reply to this topicStart new topic
> Gorehouse - Romancing The Corpse [demo] (2004), Death Metal
post Jul 10 2018, 12:03:08
Post #1

Serial Uploader
Group Icon
Group: V.I.P
Posts: 33,144
Releases: 31424
From: Lithuania
On Forums: 10 years 4 months
Thanks: 359330 time(s)
Lithuania


(IMG:https://metalarea.org/images/audiocovers/2018_Jul/acov_tid308044_thumb.jpg)

*Artist: Gorehouse
*Album: Romancing The Corpse [demo]
*Year: 2004
*Genre: Death Metal
*Country: New Zealand (IMG:https://metalarea.org/forum/style_images/flags/New%20Zealand.png)
*Format: mp3@VBR264kbps
*Size: 39MB

Tracklist:
01. Welcome To The Gorehouse 01:30
02. Charred Pig 05:41
03. Choke On Your Own Fucking Filth 03:44
04. Cruel And Unusual (Horribly Mutilated) 04:43
05. Whole To Mutilate Again 04:08
******************************
Total playing time: 19:46

(IMG:https://metalarea.org/images/myspace.png)


Technical info
(IMG:https://metalarea.org/images/spectrogram/2018_Jul/716a0a216cd414fd98f18aff9a4e6dca.png)
Input File: 05. Whole To Mutilate Again.mp3
Channels : 2
Sample Rate : 44100
Precision : 16-bit
Duration : 00:04:08.92 = 10977372 samples = 18669 CDDA sectors
File Size : 8.28M
Bit Rate : 266k
Sample Encoding: MPEG audio (layer I, II or III)
Comments :
Title=Whole To Mutilate Again
Artist=Gorehouse
Album=Romancing The Corpse [Demo]
Tracknumber=5
Year=2004



Register


Go to the top of the page
  Insert nick Quick quote
+Quote Post

Reply to this topicStart new topic
2 User(s) are reading this topic (2 Guests and 0 Anonymous Users)
0 Members:

 



- Lo-Fi Version Support form
Copyrights and abuse reports form
Time is now: 22nd October 2018 - 16:34:39