Welcome Guest ( Log In | Register )

> Releases Upload / Добавление релизов

Добавить релиз тут / Click here to add release
Рекомендованные обменники / Recommended file shares

 
Reply to this topicStart new topic
> Gorehouse - Meat The Family [ep] (2005), Death Metal
post Jul 10 2018, 12:23:51
Post #1

Serial Uploader
Group Icon
Group: V.I.P
Posts: 32,863
Releases: 31159
From: Lithuania
On Forums: 10 years 1 month
Thanks: 356969 time(s)
Lithuania


(IMG:https://metalarea.org/images/audiocovers/2018_Jul/acov_tid308045_thumb.jpg)

*Artist: Gorehouse
*Album: Meat The Family [ep]
*Year: 2005
*Genre: Death Metal
*Country: New Zealand (IMG:https://metalarea.org/forum/style_images/flags/New%20Zealand.png)
*Format: mp3@VBR219kbps
*Size: 23MB

Tracklist:
01. Fiend For Blood (Autopsy Cover) 00:29
02. Choke On Your Own Fuckin' Filth 03:01
03. Dead Dreams 00:14
04. Infintile Convulsions 00:31
05. Molest, Stab, Rape, Rape, Rape! 03:02
06. Shot In The Chest 00:36
07. Snotspill 00:17
08. Thing 00:49
09. Welcome To The Gorehouse 01:25
10. ...When You Bleed 01:10
******************************
Total playing time: 11:34

(IMG:https://metalarea.org/images/myspace.png)


Technical info
(IMG:https://metalarea.org/images/spectrogram/2018_Jul/5aeee5e1caa494a2cf2e34759fc195df.png)
Input File: 02. Choke On Your Own Fuckin\' Filth.mp3
Channels : 2
Sample Rate : 44100
Precision : 16-bit
Duration : 00:03:01.63 = 8009839 samples = 13622.2 CDDA sectors
File Size : 6.05M
Bit Rate : 266k
Sample Encoding: MPEG audio (layer I, II or III)
Comments :
Title=Choke On Your Own Fuckin' Filth
Artist=Gorehouse
Album=Meat The Familly [Ep]
Tracknumber=2
Year=2005



Register


Go to the top of the page
  Insert nick Quick quote
+Quote Post

Reply to this topicStart new topic
1 User(s) are reading this topic (1 Guests and 0 Anonymous Users)
0 Members:

 



- Lo-Fi Version Support form
Copyrights and abuse reports form
Time is now: 22nd July 2018 - 10:05:20