Welcome Guest ( Log In | Register )

 
Reply to this topicStart new topic
> 30Xx - Dark Future [ep] (2017), Experimental Goregrind (D6)
post Jul 10 2018, 12:57:18
Post #1

Serial Uploader
Group Icon
Group: V.I.P
Posts: 33,058
Releases: 31343
From: Lithuania
On Forums: 10 years 3 months
Thanks: 358580 time(s)
Lithuania


(IMG:https://metalarea.org/images/audiocovers/2018_Jul/acov_tid308047_thumb.jpg)

*Artist: 30Xx
*Album: Dark Future [ep]
*Year: 2017
*Genre: Experimental Goregrind
*Country: Japan (IMG:https://metalarea.org/forum/style_images/flags/Japan.png)
*Format: mp3@CBR320kbps
*Size: 14MB

Tracklist:
01. Nerve Splicer 00:38
02. Dark Simulations 02:20
03. Death Machine 01:10
04. Secret Base 01:43
******************************
Total playing time: 5:51




Technical info
(IMG:https://metalarea.org/images/spectrogram/2018_Jul/d5836fa4615c0722110720a8b85c7c9f.png)
Input File: 02. DARK SIMULATIONS.mp3
Channels : 2
Sample Rate : 44100
Precision : 16-bit
Duration : 00:02:20.08 = 6177352 samples = 10505.7 CDDA sectors
File Size : 5.75M
Bit Rate : 328k
Sample Encoding: MPEG audio (layer I, II or III)
Comments :
Title=DARK SIMULATIONS
Artist=30XX
Album=DARK FUTURE
Tracknumber=2
Year=2017



Register


Thanks:
Go to the top of the page
  Insert nick Quick quote
+Quote Post

Reply to this topicStart new topic
1 User(s) are reading this topic (1 Guests and 0 Anonymous Users)
0 Members:

 



- Lo-Fi Version Support form
Copyrights and abuse reports form
Time is now: 20th September 2018 - 11:20:28