Welcome Guest ( Log In | Register )

> Sathanas - Necrohymns (2018), Blackened Death Metal
post Jul 10 2018, 15:08:42
Post #1

Правь статус, ####!111
**************
Group: Металариец
Posts: 14,249
Releases: 9891
From: Г.Харьков
On Forums: 6 years 4 months
Thanks: 162368 time(s)
Unknown


(IMG:https://metalarea.org/images/audiocovers/2018_Jul/acov_tid308050_thumb.jpg)

*Artist: Sathanas
*Album: Necrohymns
*Year: 2018
*Genre: Blackened Death Metal
*Country: United States (IMG:https://metalarea.org/forum/style_images/flags/United%20States.png)
*Format: mp3@CBR320kbps
*Size: 81MB

Tracklist:
1. At the Left Hand of Satan 03:59
2. Of Wrath and Hellfire 04:51
3. Throne of Satan 03:18
4. Harbinger of Death 04:56
5. Raise the Flag of Hell 04:37
6. Upon the Wings of Desecration 02:56
7. Sacramentum 03:56
8. Witchcult 04:01
******************************
Total playing time: 32:34




Extended info
James Strauss Drums
Paul Tucker Guitars, Vocals
Bill Davidson Bass


Technical info
(IMG:https://metalarea.org/images/spectrogram/2018_Jul/77f3635136b9e6afd969bce9743dda45.png)
Input File: 02 Of Wrath And Hellfire.mp3
Channels : 2
Sample Rate : 44100
Precision : 16-bit
Duration : 00:04:51.10 = 12837422 samples = 21832.4 CDDA sectors
File Size : 12.5M
Bit Rate : 343k
Sample Encoding: MPEG audio (layer I, II or III)
Comments :
Title=Of Wrath And Hellfire
Artist=Sathanas
Album=Necrohymns
Tracknumber=2
Year=2018



Register


Go to the top of the page
  Insert nick Quick quote
+Quote Post
 
Start new topic
Replies (1 - 4)
post Jul 11 2018, 03:09:50
Post #2

Правь статус, ####!111
**************
Group: Металариец
Posts: 14,249
Releases: 9891
From: Г.Харьков
On Forums: 6 years 4 months
Thanks: 162368 time(s)
Unknown


Cloud Mail 320
Register


Go to the top of the page
  Insert nick Quick quote
+Quote Post
post Jul 11 2018, 06:59:16
Post #3

Правь статус, ####!111
**************
Group: Металариец
Posts: 2,546
Releases: 0
From: Одесса
On Forums: 10 years 6 months
Thanks: 949 time(s)
Ukraine


I thought it could be good by listening their previous works, but it turns out to a big fail. wtf??? Watain syndrom
Go to the top of the page
  Insert nick Quick quote
+Quote Post
post Jul 11 2018, 10:04:28
Post #4

Маньяк
**********
Group: Металариец
Posts: 1,238
Releases: 0
On Forums: 10 years 7 months
Thanks: 483 time(s)
Russian Federation


Нормально, хорошо, почти отлично, конечно, не хватает голоса Bill'а Davidson'а, а так всё по теме, по ихней.
Go to the top of the page
  Insert nick Quick quote
+Quote Post
post Jul 11 2018, 16:10:16
Post #5

Три Литра
***
Group: Завсегдатай
Posts: 201
Releases: 0
On Forums: 5 years 1 month
Thanks: 120 time(s)
Monaco


second zone failure. that's too bad as there were some interesting releases in the past
Go to the top of the page
  Insert nick Quick quote
+Quote Post

Reply to this topicStart new topic
1 User(s) are reading this topic (1 Guests and 0 Anonymous Users)
0 Members:

 



- Lo-Fi Version Support form
Copyrights and abuse reports form
Time is now: 20th September 2018 - 11:44:29