Welcome Guest ( Log In | Register )

> Gedeon - Leftraru (2018), Melodic Death Metal (D5)
post Jul 10 2018, 15:27:03
Post #1

Правь статус, ####!111
**************
Group: Металариец
Posts: 14,613
Releases: 10085
From: Г.Харьков
On Forums: 6 years 5 months
Thanks: 166215 time(s)
Unknown


(IMG:https://metalarea.org/images/audiocovers/2018_Jul/acov_tid308051_thumb.jpg)

*Artist: Gedeon
*Album: Leftraru
*Year: 2018
*Genre: Melodic Death Metal
*Country: Chile (IMG:https://metalarea.org/forum/style_images/flags/Chile.png)
*Format: mp3@CBR320kbps
*Size: 144MB

Tracklist:
1. Intro
2. El Augurio
3. La Invasi?n
4. El Rapto
5. El Cautiverio
6. La Vida Eterna Espera
7. La Muerte De Un Capitan
8. El Heroe
9. La Traicion
10. El Hombre
11. Escrito En Sangre
******************************
Total playing time: 1:03:02




Extended info
Carlos Rivera Bass
Miguel Cerón Drums
See also: Tower of Silence
Jorge Torres vocals (?-2011), Guitars (1998-present)
Milton Cañas Vocals (2011-present)



Technical info
(IMG:https://metalarea.org/images/spectrogram/2018_Jul/8c1c4f6e3d9f22b68feb901c76e6e1f9.png)
Input File: 03 La Invasión.mp3
Channels : 2
Sample Rate : 44100
Precision : 16-bit
Duration : 00:05:00.64 = 13258048 samples = 22547.7 CDDA sectors
File Size : 12.0M
Bit Rate : 320k
Sample Encoding: MPEG audio (layer I, II or III)
Comments :
Title=La Invasión
Artist=Gedeon
Album=Leftraru
Tracknumber=3/11
Year=2018
Genre=Death Metal
Discnumber=1/1



Register


Go to the top of the page
  Insert nick Quick quote
+Quote Post
 
Start new topic
Replies (1 - 1)
post Jul 11 2018, 03:14:04
Post #2

Правь статус, ####!111
**************
Group: Металариец
Posts: 14,613
Releases: 10085
From: Г.Харьков
On Forums: 6 years 5 months
Thanks: 166215 time(s)
Unknown


Cloud Mail 320
Register


Thanks:
(1) Ostinato,
Go to the top of the page
  Insert nick Quick quote
+Quote Post

Reply to this topicStart new topic
2 User(s) are reading this topic (2 Guests and 0 Anonymous Users)
0 Members:

 



- Lo-Fi Version Support form
Copyrights and abuse reports form
Time is now: 22nd October 2018 - 15:31:02