Welcome Guest ( Log In | Register )

> Releases Upload / Добавление релизов

Добавить релиз тут / Click here to add release
Рекомендованные обменники / Recommended file shares

> Blutvial - Mysteries Of Earth (2018), Black Metal
post Jul 10 2018, 15:40:29
Post #1

Аннигилятор пивА
Group Icon
Group: V.I.P
Posts: 47,368
Releases: 14268
From: Koenigsberg - TILZIT
On Forums: 12 years 1 month
Thanks: 316050 time(s)
Russian Federation


(IMG:http://metalarea.org/images/audiocovers/2018_Jul/acov_tid308052_thumb.jpg)

*Artist: Blutvial
*Album: Mysteries Of Earth
*Year: 2018
*Genre: Black Metal
*Country: United Kingdom (IMG:http://metalarea.org/forum/style_images/flags/United%20Kingdom.png)
*Format: mp3@CBR320kbps
*Size: 138MB

Tracklist:
01. Beneath the Moon 08:46
02. Black Silence 02:07
03. Existential Rite 03:48
04. Vaults of Unrest 04:46
05. Carving Nihil 07:04
06. Midwinters Halls 05:43
07. Urnacht 05:34
08. Doomed to Eternal Night 05:47
09. In Praise of Noctula 07:10
10. Where Graves Spring Open 10:02
******************************
Total playing time: 1:00:47




Extended info
Andras - Bass (Code, Binah, ex-Acolyte's Ruin, ex-Blitzkrieg, ex-Reign of Erebus, ex-Ligature)
Tiúval - Drums (Delinquentes Infernae, Half Visible Presence, Israthoum, ex-Eternal Frost, ex-Perditor, ex-Grendel, ex-Onheil)
Aort - Guitars, Bass, Drums (Binah, Code, Tome of the Unreplenished, ex-Indesinence, ex-Decrepit Spectre, ex-Seasonal Code)
Ewchymlaen - Vocals, Guitars (ex-Acolyte's Ruin, ex-Reign of Erebus)


Technical info
(IMG:http://metalarea.org/images/spectrogram/2018_Jul/d3e9d0e1e48c22a99dca4aac17ace7b9.png)
Input File: 01 Beneath The Moon.mp3
Channels : 2
Sample Rate : 48000
Precision : 16-bit
Duration : 00:08:45.63 = 25230096 samples ~ 39422 CDDA sectors
File Size : 21.0M
Bit Rate : 320k
Sample Encoding: MPEG audio (layer I, II or III)
Comments :
Title=Beneath the Moon
Artist=Blutvial
Album=Mysteries of Earth
Tracknumber=1
Year=2018
Genre=Black Metal



Register


Go to the top of the page
  Insert nick Quick quote
+Quote Post
 
Start new topic
Replies (1 - 4)
post Jul 11 2018, 03:03:19
Post #2

Аннигилятор пивА
Group Icon
Group: V.I.P
Posts: 47,368
Releases: 14268
From: Koenigsberg - TILZIT
On Forums: 12 years 1 month
Thanks: 316050 time(s)
Russian Federation


...classic Scandinavian riff-based tradition of the early and mid 90s, reminding of Norwegian gems by bands such as Thorns, Kvist, Strid, Gorgoroth, Obtained Enslavement and, of course, Burzum...

MIRROR
Register





Go to the top of the page
  Insert nick Quick quote
+Quote Post
post Jul 11 2018, 03:04:04
Post #3

\m/
Group Icon
Group: S-moderation team
Posts: 7,435
Releases: 19
From: Петропавловск-Камчатский
On Forums: 9 years 1 month
Thanks: 6681 time(s)
Russian Federation


Added links by Samaritianin
Go to the top of the page
  Insert nick Quick quote
+Quote Post
post Jul 11 2018, 08:14:42
Post #4

Necromancer
****
Group: Металариец
Posts: 394
Releases: 0
From: Vienna
On Forums: 8 years 11 months
Thanks: 65 time(s)
Austria


The voice is so distorted, it's not even fun.
Go to the top of the page
  Insert nick Quick quote
+Quote Post
post Jul 11 2018, 08:23:49
Post #5

Три Литра
***
Group: Завсегдатай
Posts: 201
Releases: 1
From: г. Бор, Нижегородская обл.
On Forums: 8 years 1 week
Thanks: 382 time(s)
Russian Federation


И все бы было хорошо, если бы не было так затянуто. Минут сорок - в самый раз. А тут к концу альбома просто устаешь.
Go to the top of the page
  Insert nick Quick quote
+Quote Post

Reply to this topicStart new topic
1 User(s) are reading this topic (1 Guests and 0 Anonymous Users)
0 Members:

 



- Lo-Fi Version Support form
Copyrights and abuse reports form
Time is now: 20th July 2018 - 00:03:31