Welcome Guest ( Log In | Register )

> Hellvete - The Dawn Was Never Come (2018), Atmospheric Black Metal
post Jul 10 2018, 17:23:49
Post #1

Аннигилятор пивА
Group Icon
Group: V.I.P
Posts: 49,547
Releases: 15321
From: Koenigsberg - TILZIT
On Forums: 12 years 4 months
Thanks: 334027 time(s)
Russian Federation


(IMG:http://metalarea.org/images/audiocovers/2018_Jul/acov_tid308055_thumb.jpg)

*Artist: Hellvete
*Album: The Dawn Was Never Come
*Year: 2018
*Genre: Atmospheric Black Metal
*Country: Indonesia (IMG:http://metalarea.org/forum/style_images/flags/Indonesia.png)
*Format: mp3@CBR320kbps
*Size: 109MB

Tracklist:
01. Between The Light 08:48
02. The Dawn Was Never Come 04:36
03. Haunted Memories 04:31
04. A Day Without a Human 05:07
05. The Ashes 04:53
06. The Sounds like a Dawn 05:08
07. To Fade the Winds 07:12
08. Only the Wind and Haunted Memories 07:05
******************************
Total playing time: 47:20

http://shareyourpainrecords.com/album/the-...-was-never-come

Technical info
(IMG:http://metalarea.org/images/spectrogram/2018_Jul/df3c4a12aef6e3dc06eaefe31dd1abad.png)
Input File: 02 The Dawn Was Never Come.mp3
Channels : 2
Sample Rate : 44100
Precision : 16-bit
Duration : 00:04:36.13 = 12177289 samples = 20709.7 CDDA sectors
File Size : 11.1M
Bit Rate : 322k
Sample Encoding: MPEG audio (layer I, II or III)
Comments :
Title=The Dawn Was Never Come
Artist=Hellvete
Album=The Dawn Was Never Come
Tracknumber=2
Year=2018



Register


Go to the top of the page
  Insert nick Quick quote
+Quote Post
 
Start new topic
Replies (1 - 1)
post Jul 11 2018, 03:07:27
Post #2

Аннигилятор пивА
Group Icon
Group: V.I.P
Posts: 49,547
Releases: 15321
From: Koenigsberg - TILZIT
On Forums: 12 years 4 months
Thanks: 334027 time(s)
Russian Federation


MIRROR
Register

Register




Go to the top of the page
  Insert nick Quick quote
+Quote Post

Reply to this topicStart new topic
2 User(s) are reading this topic (2 Guests and 0 Anonymous Users)
0 Members:

 



- Lo-Fi Version Support form
Copyrights and abuse reports form
Time is now: 22nd October 2018 - 15:58:51