Welcome Guest ( Log In | Register )

> Releases Upload / Добавление релизов

Добавить релиз тут / Click here to add release
Рекомендованные обменники / Recommended file shares

> Cataract Nocturhale - Obsessed With Past (2018), Atmospheric Black Metal
post Jul 10 2018, 17:36:01
Post #1

Аннигилятор пивА
Group Icon
Group: V.I.P
Posts: 47,368
Releases: 14268
From: Koenigsberg - TILZIT
On Forums: 12 years 1 month
Thanks: 316050 time(s)
Russian Federation


(IMG:http://metalarea.org/images/audiocovers/2018_Jul/acov_tid308056_thumb.jpg)

*Artist: Cataract Nocturhale
*Album: Obsessed With Past
*Year: 2018
*Genre: Atmospheric Black Metal
*Country: Slovakia (IMG:http://metalarea.org/forum/style_images/flags/Slovakia.png)
*Format: mp3@CBR320kbps
*Size: 99MB

Tracklist:
01. Obsessed With Past 16:26
02. Voided Alleys 13:28
03. River Of Dead Souls 13:09
******************************
Total playing time: 43:03

Preview 1

Technical info
(IMG:http://metalarea.org/images/spectrogram/2018_Jul/6865d74a6782292abf95e83f72c52077.png)
Input File: 02 Voided Alleys.mp3
Channels : 2
Sample Rate : 44100
Precision : 16-bit
Duration : 00:13:28.12 = 35637916 samples = 60608.7 CDDA sectors
File Size : 32.4M
Bit Rate : 321k
Sample Encoding: MPEG audio (layer I, II or III)
Comments :
Title=Voided Alleys
Artist=Cataract Nocturhale
Album=Obsessed With Past
Tracknumber=2
Year=2018



Register


Go to the top of the page
  Insert nick Quick quote
+Quote Post
 
Start new topic
Replies (1 - 2)
post Jul 11 2018, 03:09:28
Post #2

Аннигилятор пивА
Group Icon
Group: V.I.P
Posts: 47,368
Releases: 14268
From: Koenigsberg - TILZIT
On Forums: 12 years 1 month
Thanks: 316050 time(s)
Russian Federation


MIRROR
Register

Register



Go to the top of the page
  Insert nick Quick quote
+Quote Post
post Jul 15 2018, 04:58:04
Post #3

Правь статус, ####!111
**************
Group: Металариец
Posts: 2,028
Releases: 23
From: Nakhodka
On Forums: 8 years 1 month
Thanks: 1610 time(s)
Russian Federation


Скучно.


Thanks:
(1) Precaria,
Go to the top of the page
  Insert nick Quick quote
+Quote Post

Reply to this topicStart new topic
1 User(s) are reading this topic (1 Guests and 0 Anonymous Users)
0 Members:

 



- Lo-Fi Version Support form
Copyrights and abuse reports form
Time is now: 20th July 2018 - 00:04:52