Welcome Guest ( Log In | Register )

> Medieval Demon - Medieval Necromancy (2018), Black Metal (D6)
post Jul 10 2018, 17:52:51
Post #1

𝕻𝕬𝕹𝕬𝕮𝕰𝕬
******
Group: Металариец
Posts: 571
Releases: 326
On Forums: 6 years 3 months
Thanks: 4388 time(s)
Unknown


(IMG:http://metalarea.org/images/audiocovers/2018_Jul/acov_tid308057_thumb.jpg)

*Artist: Medieval Demon
*Album: Medieval Necromancy
*Year: 2018
*Genre: Black Metal
*Country: Greece (IMG:http://metalarea.org/forum/style_images/flags/Greece.png)
*Format: mp3@CBR320kbps
*Size: 122MB

Tracklist:
1. Chthonic Curses 08:01
2. Spells Of The Akkadian Priests 07:11
3. Invisible Black Magic Ritual 05:21
4. Les Litanies De Satan 03:00
5. Moldy Wings Of Death 05:45
6. Ancient Evil In The Woods 03:50
7. Blackmoon Sacrifice 07:58
8. Into The Caves Of Blood 04:29
9. Medieval Necromancy 07:26
10. The Great He Goat 02:22
******************************
Total playing time: 55:23



Extended info
MEDIEVAL DEMON have risen from the time and dust of the glorious '90s to unleash spells, prayers, and glorify the gods of the underworld and mighty Lucifer, the ruler of the Earth. They shall do so under the banner of HELLS HEADBANGERS with an aptly titled second album, "Medieval Necromancy": ten hymns to the spirits of the underworld, the glorification of Satanas, and curses against Christianity.

Says drummer/keyboardist Lord Apollyon, "We are honored to release "Medieval Necromancy" through HELLS HEADBANGERS, an original label that is dedicated to the underground for so many years. "Medieval Necromancy" is a creation from the '90s: old-school, Necromantic Spiritual Black Metal from the Abyss."

Indeed, "Medieval Necromancy" is like a time-warp back to the '90s black metal scene, especially Greek's significant role in such. While many usually point to the Scandinavian scene as forerunners of '90s black metal, it is Greece that had a small yet exceptionally potent scene, its sound soon becoming instantly recognizable worldwide, as purveyed by the original "Big Three" of Rotting Christ, Varathron, and Necromantia. MEDIEVAL DEMON arose during this era, and were spurred into action by the spirit of the times. Some 20 years after the release of their cult debut album, their latest "Medieval Necromancy" takes those same original rudiments - proud 'n' patient pulse, witching atmosphere, dusky hues, and no small amount of muscle - and brings them forward into the present, giving a much more rounded 'n' robust production than that found on the no-less-considerable "Demonolatria". It's a sound that's as fresh as it is classic, mysterious as it is majestic, unremittingly obsidian as it is immediately invigorating.

Some spirits lay dormant, wordlessly biding their time to finally awaken from their slumber. MEDIEVAL DEMON have arisen from theirs, and the time for eternal haunting is now. Step into the past to partake in an especially evil present with "Medieval Necromancy"!


Technical info
(IMG:http://metalarea.org/images/spectrogram/2018_Jul/914819334190ac0b33f0449412588a50.png)
Input File: 08 - Into The Caves Of Blood.mp3
Channels : 2
Sample Rate : 44100
Precision : 16-bit
Duration : 00:04:29.81 = 11898621 samples = 20235.8 CDDA sectors
File Size : 10.8M
Bit Rate : 320k
Sample Encoding: MPEG audio (layer I, II or III)
Comments :
Title=Into The Caves Of Blood
Artist=Medieval Demon
Album=Medieval Necromancy
Tracknumber=8
Year=2018
Genre=Black Metal



Register


Go to the top of the page
  Insert nick Quick quote
+Quote Post
 
Start new topic
Replies (1 - 5)
post Jul 11 2018, 08:00:04
Post #2

Дети, блуждающие в Пустошах, возрадуйтесь! Атом даёт вам шанс на спасение!
********
Group: Металариец
Posts: 831
Releases: 147
From: Одеса
On Forums: 4 years 8 months
Thanks: 2172 time(s)
Ukraine


неужели Легенда вновь разродилась? в топ года!


Thanks:
(1) nunim,
Go to the top of the page
  Insert nick Quick quote
+Quote Post
post Jul 11 2018, 10:02:01
Post #3

Маньяк
**********
Group: Металариец
Posts: 1,303
Releases: 0
From: Dnipro
On Forums: 10 years 2 months
Thanks: 359 time(s)
Ukraine


Проходной альбом.
Go to the top of the page
  Insert nick Quick quote
+Quote Post
post Jul 12 2018, 08:15:39
Post #4

Семь Литров
*******
Group: Металариец
Posts: 744
Releases: 0
From: Новосибирск
On Forums: 9 years 3 weeks
Thanks: 196 time(s)
Russian Federation


ЦИТАТА(YDV.SVARTVIND @ Jul 11 2018, 14:00:04) *
неужели Легенда вновь разродилась? в топ года!


Чё за "легенда"?
Go to the top of the page
  Insert nick Quick quote
+Quote Post
post Jul 12 2018, 08:51:20
Post #5

Маньяк
**********
Group: Металариец
Posts: 1,399
Releases: 0
On Forums: 2 years 2 months
Thanks: 59 time(s)
United Kingdom


Very nice album
Go to the top of the page
  Insert nick Quick quote
+Quote Post
post Jul 12 2018, 09:18:35
Post #6

𝕻𝕬𝕹𝕬𝕮𝕰𝕬
******
Group: Металариец
Posts: 571
Releases: 326
On Forums: 6 years 3 months
Thanks: 4388 time(s)
Unknown


QUOTE(Wail @ Jul 12 2018, 09:51:20) *
Very nice album

Indeed, a blast from the past and for me one of the best albums for this year.
This one could easily have been a Greek black metal release from back the mid 90's.
Go to the top of the page
  Insert nick Quick quote
+Quote Post

Reply to this topicStart new topic
1 User(s) are reading this topic (1 Guests and 0 Anonymous Users)
0 Members:

 



- Lo-Fi Version Support form
Copyrights and abuse reports form
Time is now: 19th September 2018 - 05:52:42