Welcome Guest ( Log In | Register )

> Temple Desecration - Whirlwinds Of Fathomless Chaos (2018), Black/Death Metal
post Jul 10 2018, 20:32:52
Post #1

Detective Godzilla
**************
Group: Металариец
Posts: 2,560
Releases: 186
On Forums: 7 years 7 months
Thanks: 5473 time(s)
Russian Federation


(IMG:https://metalarea.org/images/audiocovers/2018_Jul/acov_tid308058_thumb.jpg)

*Artist: Temple Desecration
*Album: Whirlwinds Of Fathomless Chaos
*Year: 2018
*Genre: Black/Death Metal
*Country: Poland (IMG:https://metalarea.org/forum/style_images/flags/Poland.png)
*Format: mp3@CBR320kbps
*Size: 89MB

Tracklist:
1. Nameless Hordes 05:49
2. Entering the Void 05:34
3. Dominion of Darkness 06:21
4. Covenant 12:38
5. Blood Offering 07:01
******************************
Total playing time: 37:23



Extended info
Promo stuff

IRON BONEHEAD PRODUCTIONS is proud to present TEMPLE DESECRATION's highly anticipated debut album, Whirlwinds of Fathomless Chaos, on CD and vinyl LP formats.

Since TEMPLE DESECRATION's beginnings in 2011, this mysterious Polish cult have been a study in refined ugliness. Prizing quality over quantity, each release has been exacting, yet executed with animalistic abandon. It began in 2012 with the very-aptly-titled Abhorrent Rites demo - which IRON BONEHEAD later released on 12" vinyl, in 2015 - and carried forward to the dread expanses of the Communion Perished EP in 2014. There, at just two songs in a swift 13 minutes, TEMPLE DESECRATION indeed desecrated by-now-passe "bestial metal" conventions into something angular and truly overwhelming, incensed by the form's latent power but focusing it into an ever-roiling maelstrom that was worlds away - and suggested, even, other worlds.

With the stage thus set, a whole four years later, TEMPLE DESECRATION return to maximize that enviable potential with their first full-length, Whirlwinds of Fathomless Chaos. Massive in every measure, Whirlwinds of Fathomless Chaos is indeed a whirlwind, but any chaos extant in the band's sound has been excised for locked-in, monged-out hypnosis. It's a tradeoff that works in spades, as TEMPLE DESECRATION's vile, virulent pulse becomes more patient and yet more mesmerizing, eventually devouring the listener whole - or at least sucking said listener into a black hole, many worlds away. The more expanded song structures first explored on Communion Perished are here finessed even further, building new pillars of pustulent terror and crushingly physical tension: at five songs in 38 minutes, the sheer density and solar weight of Whirlwinds of Fathomless Chaos feels far more expansive than its compact runtime suggests.

These advancements aside, TEMPLE DESECRATION have also managed to make their mangling of the bestial idiom more ritualistic, more ceremonial. That pulse may still be tethered to black/death traditionalism - it is METAL, after all - but the way this cult warps their riffs into slithering sensations of sound elevates Whirlwinds of Fathomless Chaos above the mongrel hordes listlessly flying that "bestial metal" banner. In short, there is transcendentalism coursing through every minute of the album, and TEMPLE DESECRATION have hereby unlocked its boundless enormity.

Gaze into its cover art - faintly, deeply, whichever - and begin to contemplate the enormity of TEMPLE DESECRATION. For these Whirlwinds of Fathomless Chaos stretch beyond The Beyond...


Technical info
(IMG:https://metalarea.org/images/spectrogram/2018_Jul/df5bed57b571021a487faaf05b1a15c0.png)
Input File: 04 Covenant.mp3
Channels : 2
Sample Rate : 44100
Precision : 16-bit
Duration : 00:12:37.62 = 33411130 samples = 56821.6 CDDA sectors
File Size : 30.9M
Bit Rate : 326k
Sample Encoding: MPEG audio (layer I, II or III)
Comments :
Title=04 Covenant
Artist=Temple Desecration
Album=Whirlwinds of Fathomless Chaos LP/CD
Tracknumber=4



Register


Go to the top of the page
  Insert nick Quick quote
+Quote Post
 
Start new topic
Replies (1 - 5)
post Jul 11 2018, 16:08:23
Post #2

Три Литра
***
Group: Завсегдатай
Posts: 201
Releases: 0
On Forums: 5 years 1 month
Thanks: 120 time(s)
Monaco


not doing it for me. their ass is between 2 chairs
Go to the top of the page
  Insert nick Quick quote
+Quote Post
post Jul 11 2018, 17:14:47
Post #3

Самый Тихий Час
**************
Group: Металариец
Posts: 5,590
Releases: 0
On Forums: 8 years 10 months
Thanks: 2425 time(s)
Unknown


Кажись годнота.
Go to the top of the page
  Insert nick Quick quote
+Quote Post
post Jul 12 2018, 08:17:29
Post #4

Семь Литров
*******
Group: Металариец
Posts: 744
Releases: 0
From: Новосибирск
On Forums: 9 years 3 weeks
Thanks: 196 time(s)
Russian Federation


Что-то для такой группы по-агглицки подозрительно много написано. В двух словах: оно гэ или годное? (IMG:style_emoticons/default/smile3.gif)
Go to the top of the page
  Insert nick Quick quote
+Quote Post
post Jul 12 2018, 18:26:03
Post #5

Detective Godzilla
**************
Group: Металариец
Posts: 2,560
Releases: 186
On Forums: 7 years 7 months
Thanks: 5473 time(s)
Russian Federation


SSWolf88, Какой такой? Как экспорт из Польши, для бм-сцены они очень и очень хороши. Их не зря сходу подписали на Iron Bonehead, где даже демку в итоге переиздали, ибо спрос есть (релизы вроде, кроме новья, конечно же, распроданы).
Go to the top of the page
  Insert nick Quick quote
+Quote Post
post Jul 13 2018, 03:45:04
Post #6

Group: Дух
Posts: 2
Releases: 0
On Forums: 3 years 6 months
Thanks: 0 time(s)
United States


Great album. Probably off topic but can anyone upload their demo?
Go to the top of the page
  Insert nick Quick quote
+Quote Post

Reply to this topicStart new topic
1 User(s) are reading this topic (1 Guests and 0 Anonymous Users)
0 Members:

 



- Lo-Fi Version Support form
Copyrights and abuse reports form
Time is now: 19th September 2018 - 07:01:43