Welcome Guest ( Log In | Register )

> War Dogs - War Dogs [ep] (2018), Heavy/Speed Metal
post Jul 10 2018, 21:15:22
Post #1

Аннигилятор пивА
Group Icon
Group: V.I.P
Posts: 48,776
Releases: 14911
From: Koenigsberg - TILZIT
On Forums: 12 years 3 months
Thanks: 326824 time(s)
Russian Federation


(IMG:http://metalarea.org/images/audiocovers/2018_Jul/acov_tid308060_thumb.jpg)

*Artist: War Dogs
*Album: War Dogs [ep]
*Year: 2018
*Genre: Heavy/Speed Metal
*Country: Spain (IMG:http://metalarea.org/forum/style_images/flags/Spain.png)
*Format: mp3@CBR320kbps
*Size: 62MB

Tracklist:
1. Back for the Attack 04:05
2. Playing with Fire 03:23
3. Immortal's Lament 06:28
4. Midnight Whisper 03:33
5. Rampage 05:46
6. To Live to Fight Another Day 03:16
******************************
Total playing time: 26:31



Extended info
Manuel Molina - Bass (2015-present)
José V. Aldeguer - Drums (2015-present)
Eduardo Antón - Guitars (lead) (2015-present)
Enrique Mas - Guitars (rhythm) (2017-present)
Alberto Rodríguez - Vocals (2017-present)



Technical info
(IMG:http://metalarea.org/images/spectrogram/2018_Jul/0123b5ff1909872f713bd15601dba667.png)
Input File: 02. Playing with Fire.mp3
Channels : 2
Sample Rate : 44100
Precision : 16-bit
Duration : 00:03:23.30 = 8965486 samples = 15247.4 CDDA sectors
File Size : 8.49M
Bit Rate : 334k
Sample Encoding: MPEG audio (layer I, II or III)
Comments :
Title=Playing with Fire
Artist=War Dogs
Album=War Dogs
Tracknumber=2/6
Year=2018
Discnumber=1/1



Register


Go to the top of the page
  Insert nick Quick quote
+Quote Post
 
Start new topic
Replies (1 - 6)
post Jul 11 2018, 03:15:04
Post #2

Аннигилятор пивА
Group Icon
Group: V.I.P
Posts: 48,776
Releases: 14911
From: Koenigsberg - TILZIT
On Forums: 12 years 3 months
Thanks: 326824 time(s)
Russian Federation


mirror
Register


Go to the top of the page
  Insert nick Quick quote
+Quote Post
post Jul 11 2018, 06:38:45
Post #3

Наливай!
**************
Group: Металариец
Posts: 5,098
Releases: 27
From: Москва-Бибирево
On Forums: 10 years 6 months
Thanks: 2395 time(s)
Russian Federation




Go to the top of the page
  Insert nick Quick quote
+Quote Post
post Jul 11 2018, 16:29:34
Post #4

ухо-горло-нос
*******
Group: Металариец
Posts: 766
Releases: 0
From: Севастополь
On Forums: 8 years 2 weeks
Thanks: 343 time(s)
Russian Federation


Молодцы испанцы. Тот самый приемлемый гаражный уровень. Видно что ребята отсидели свои "ЖЧ" композиторские жоуппа-часы с инструментом в руках и писали уже осознанно. Молодцы!
Go to the top of the page
  Insert nick Quick quote
+Quote Post
post Jul 22 2018, 15:55:29
Post #5

Перевозчик
**************
Group: Металариец
Posts: 2,757
Releases: 0
On Forums: 10 years 2 months
Thanks: 573 time(s)
Russian Federation


Полное днище.
Go to the top of the page
  Insert nick Quick quote
+Quote Post
post Jul 22 2018, 18:13:47
Post #6

И Ван Дамм По Делам Вашим!
**************
Group: Металариец
Posts: 16,004
Releases: 27
On Forums: 10 years 2 months
Thanks: 8519 time(s)
Honduras


ЦИТАТА(zauber1 @ Jul 22 2018, 17:55:29) *
Полное днище.

нет.
Go to the top of the page
  Insert nick Quick quote
+Quote Post
post Jul 22 2018, 19:21:14
Post #7

Join my religion, or die
**************
Group: Металариец
Posts: 9,579
Releases: 1147
From: Питера
On Forums: 8 years 11 months
Thanks: 15680 time(s)
Russian Federation


Вокал слабоват. Хорошего продюсера и звука не хватает...
Слушать можно.
Go to the top of the page
  Insert nick Quick quote
+Quote Post

Reply to this topicStart new topic
1 User(s) are reading this topic (1 Guests and 0 Anonymous Users)
0 Members:

 



- Lo-Fi Version Support form
Copyrights and abuse reports form
Time is now: 19th September 2018 - 10:28:48