Welcome Guest ( Log In | Register )

> И неформату есть предел.

Рэп/хип-хоп/шансон/поп удаляются. Для них есть свои порталы.

> Genesis - Nursery Cryme (1971), Progressive Rock (D10)
post Jul 10 2018, 21:43:11
Post #1


**********
Group: Металариец
Posts: 1,180
Releases: 186
From: Подмосковье
On Forums: 9 years 2 months
Thanks: 2891 time(s)
Russian Federation


(IMG:http://metalarea.org/images/audiocovers/2018_Jul/acov_tid308061_thumb.jpg)

*Artist: Genesis
*Album: Nursery Cryme
*Year: 1971
*Genre: Progressive Rock
*Country: United Kingdom (IMG:http://metalarea.org/forum/style_images/flags/United%20Kingdom.png)
*Format: mp3@CBR320kbps
*Size: 89MB

Tracklist:
1. The Musical Box 10:24
2. For Absent Friends 1:44
3. The Return of the Giant Hogweed 8:10
4. Seven Stones 5:10
5. Harold the Barrel 2:55
6. Harlequin 2:52
7. The Fountain of Salmacis 7:54
******************************
Total playing time: 39:09

(IMG:http://metalarea.org/images/youtube.png)

Extended info
Line-up / Musicians
- Peter Gabriel / lead vocals, flute, tambourine, bass drum
- Steve Hackett / electric and 12-string guitars
- Tony Banks / organ, Mellotron, piano & electric piano, 12-string guitar, backing vocals
- Mike Rutherford / bass, bass pedals, 12-string guitar, backing vocals
- Phil Collins / drums, percussion, lead (2) & backing vocals


Technical info
(IMG:http://metalarea.org/images/spectrogram/2018_Jul/6b9f046bafb2450cb40f61ac034cb098.png)
Input File: 02 For Absent Friends.mp3
Channels : 2
Sample Rate : 44100
Precision : 16-bit
Duration : 00:01:47.71 = 4750055 samples = 8078.32 CDDA sectors
File Size : 4.31M
Bit Rate : 320k
Sample Encoding: MPEG audio (layer I, II or III)
Comments :
Title=For Absent Friends
Artist=Genesis
Album=Nursery Cryme
Tracknumber=2/7
Year=1971
Genre=Progressive Rock



Register


Thanks:
Go to the top of the page
  Insert nick Quick quote
+Quote Post
 
Start new topic
Replies (1 - 2)
post Jul 11 2018, 11:34:47
Post #2


**********
Group: Металариец
Posts: 1,180
Releases: 186
From: Подмосковье
On Forums: 9 years 2 months
Thanks: 2891 time(s)
Russian Federation


2007 Remaster + covers
320
Register


Thanks:
Go to the top of the page
  Insert nick Quick quote
+Quote Post
post Jul 17 2018, 21:12:13
Post #3

Семь Литров
*******
Group: Металариец
Posts: 729
Releases: 0
From: Харьков
On Forums: 9 years 3 weeks
Thanks: 235 time(s)
Ukraine


Первый альбом в золотом составе и уже практически шедевр. "The Musical Box", "Seven Stones" и "The Fountain of Salmacis" - самый топчик, да и "Harold the Barrel" получилась весьма забавной.
Go to the top of the page
  Insert nick Quick quote
+Quote Post

Reply to this topicStart new topic
2 User(s) are reading this topic (2 Guests and 0 Anonymous Users)
0 Members:

 



- Lo-Fi Version Support form
Copyrights and abuse reports form
Time is now: 18th October 2018 - 02:13:11