Welcome Guest ( Log In | Register )

> Правила / Rules

Тут только для чтения лежат низкобитрейтные (<192kbps) релизы, для которых есть аналоги в высокобитрейтных форумах.

Here goes (and stand in read only mode) low bitrate releases (<192kbps) which were already replaced by high bitrate releases in corresponding forums.

Причина закрытия (DarkHorde 13-07-2018): Mordant Rapture - The Abnegation [ep] (2018)
 
Closed TopicStart new topic
> Mordant Rapture - The Abnegation [ep] (2018), Symphonic/Technical Death Metal
post Jul 10 2018, 22:44:23
Post #1

Правь статус, ####!111
**************
Group: Металариец
Posts: 14,235
Releases: 9883
From: Г.Харьков
On Forums: 6 years 4 months
Thanks: 162294 time(s)
Unknown


(IMG:https://metalarea.org/images/audiocovers/2018_Jul/acov_tid308062_thumb.jpg)

*Artist: Mordant Rapture
*Album: The Abnegation [ep]
*Year: 2018
*Genre: Symphonic/Technical Death Metal
*Country: United States (IMG:https://metalarea.org/forum/style_images/flags/United%20States.png)
*Format: mp3@CBR192kbps
*Size: 30MB

Tracklist:
1. Unsightly Beast
2. Withered View
3. A Plea Above Ashes
4. Quell the Voiceless
5. Natal Trophies
******************************
Total playing time: 22:38

(IMG:https://metalarea.org/images/youtube.png)



Extended info
В Лоу
Vocals | Rodrigo Rodríguez
Guitar | Ben Wilkinson
Guitar | Kent Congdon
Drums | Josh Miller


Technical info
(IMG:https://metalarea.org/images/spectrogram/2018_Jul/4fc1d9e86bdb3d1c0dc90cd75871c55b.png)
Input File: 04 - Quell the Voiceless.mp3
Channels : 2
Sample Rate : 44100
Precision : 16-bit
Duration : 00:05:17.41 = 13997957 samples = 23806 CDDA sectors
File Size : 7.62M
Bit Rate : 192k
Sample Encoding: MPEG audio (layer I, II or III)
Comments :
Title=Quell the Voiceless
Artist=Mordant Rapture
Album=The Abnegation
Tracknumber=4
Year=2018
Genre=Death Metal



Register


Thanks:
Go to the top of the page
  Insert nick Quick quote
+Quote Post

Причина закрытия (DarkHorde 13-07-2018): Mordant Rapture - The Abnegation [ep] (2018)
Closed TopicStart new topic
1 User(s) are reading this topic (1 Guests and 0 Anonymous Users)
0 Members:

 



- Lo-Fi Version Support form
Copyrights and abuse reports form
Time is now: 19th September 2018 - 06:44:41