Welcome Guest ( Log In | Register )

 
Reply to this topicStart new topic
> Virox - VxRxXx [ep] (2018), Thrash Metal
post Jul 10 2018, 23:26:41
Post #1

Правь статус, ####!111
**************
Group: Металариец
Posts: 14,613
Releases: 10085
From: Г.Харьков
On Forums: 6 years 5 months
Thanks: 166215 time(s)
Unknown


(IMG:https://metalarea.org/images/audiocovers/2018_Jul/acov_tid308063_thumb.jpg)

*Artist: Virox
*Album: VxRxXx [ep]
*Year: 2018
*Genre: Thrash Metal
*Country: Mexico (IMG:https://metalarea.org/forum/style_images/flags/Mexico.png)
*Format: mp3@CBR320kbps
*Size: 31MB

Tracklist:
01. Acto de Guerra
03. Desastre Nuclear
04. Instinto Alcohólico
04. VxRxXx
******************************
Total playing time: 14:24



Extended info
Jose - Batería y coros
Oswald - Voz
Andres - Guitarra
Eddie - Bajo


Technical info
(IMG:https://metalarea.org/images/spectrogram/2018_Jul/665b13291030e4b3a77e97edcaf94f3f.png)
Input File: 03 - Instinto Alcoholico.mp3
Channels : 2
Sample Rate : 44100
Precision : 16-bit
Duration : 00:03:50.98 = 10186130 samples = 17323.4 CDDA sectors
File Size : 9.25M
Bit Rate : 320k
Sample Encoding: MPEG audio (layer I, II or III)
Comments :
Title=Instinto Alcoholico
Artist=ViroX
Album=VxRxXx
Tracknumber=3
Year=2018
Genre=Thrash Metal



Register


Go to the top of the page
  Insert nick Quick quote
+Quote Post

Reply to this topicStart new topic
2 User(s) are reading this topic (2 Guests and 0 Anonymous Users)
0 Members:

 



- Lo-Fi Version Support form
Copyrights and abuse reports form
Time is now: 22nd October 2018 - 16:09:46