Welcome Guest ( Log In | Register )

> Releases Upload / Добавление релизов

Добавить релиз тут / Click here to add release
Рекомендованные обменники / Recommended file shares

 
Reply to this topicStart new topic
> Szalec - Acheron (2018), Melodic Black/Death Metal
post Jul 11 2018, 02:19:58
Post #1

Аннигилятор пивА
Group Icon
Group: V.I.P
Posts: 47,311
Releases: 14241
From: Koenigsberg - TILZIT
On Forums: 12 years 1 month
Thanks: 315576 time(s)
Russian Federation


(IMG:http://metalarea.org/images/audiocovers/2018_Jul/acov_tid308064_thumb.jpg)

*Artist: Szalec
*Album: Acheron
*Year: 2018
*Genre: Melodic Black/Death Metal
*Country: United States (IMG:http://metalarea.org/forum/style_images/flags/United%20States.png)
*Format: mp3@CBR320kbps
*Size: 57MB

Tracklist:
1. Acheron 04:02
2. Carnal Pleasure 02:19
3. Hell's Welcome 03:41
4. Exclusions Made 06:15
5. Regret 03:24
6. Odible 02:12
7. Nail-Pierced 04:50
******************************
Total playing time: 26:43

Extended info
SCENE-RIP



Technical info
(IMG:http://metalarea.org/images/spectrogram/2018_Jul/34863d3c078157f12cc08656c7574a13.png)
Input File: 03-szalec-hells_welcome-4871f3c1.mp3
Channels : 2
Sample Rate : 44100
Precision : 16-bit
Duration : 00:03:41.25 = 9756949 samples = 16593.5 CDDA sectors
File Size : 9.02M
Bit Rate : 326k
Sample Encoding: MPEG audio (layer I, II or III)
Comments :
Title=Hell's Welcome
Artist=Szalec
Album=Acheron
Tracknumber=3/7
Year=2018
Genre=Death Metal



Register


Go to the top of the page
  Insert nick Quick quote
+Quote Post

Reply to this topicStart new topic
1 User(s) are reading this topic (1 Guests and 0 Anonymous Users)
0 Members:

 



- Lo-Fi Version Support form
Copyrights and abuse reports form
Time is now: 17th July 2018 - 04:31:14