Welcome Guest ( Log In | Register )

> Releases Upload / Добавление релизов

Добавить релиз тут / Click here to add release
Рекомендованные обменники / Recommended file shares

> Varde - Asgaardsreien [ep] (2018), Atmospheric Black Metal
post Jul 11 2018, 02:23:03
Post #1

Аннигилятор пивА
Group Icon
Group: V.I.P
Posts: 47,368
Releases: 14268
From: Koenigsberg - TILZIT
On Forums: 12 years 1 month
Thanks: 316050 time(s)
Russian Federation


(IMG:http://metalarea.org/images/audiocovers/2018_Jul/acov_tid308065_thumb.jpg)

*Artist: Varde
*Album: Asgaardsreien [ep]
*Year: 2018
*Genre: Atmospheric Black Metal
*Country: Norway (IMG:http://metalarea.org/forum/style_images/flags/Norway.png)
*Format: mp3@CBR320kbps
*Size: 50MB

Tracklist:
1. Asgaardsreien 17:23
2. Koll med Bilen (part 2) 05:27
******************************
Total playing time: 22:50



Extended info
SCENE-RIP
National Romantic Norwegian Black Metal

D'arn: Drums
Nord: Guitars, Synth, Bass, Additional Vocals
Koll: Percussion, Horns, Vocals



Technical info
(IMG:http://metalarea.org/images/spectrogram/2018_Jul/2f13064baa351666e7b1c022503233a5.png)
Input File: 02-varde-koll_med_bilen_(part_2)-6b2436bb.mp3
Channels : 2
Sample Rate : 44100
Precision : 16-bit
Duration : 00:05:37.13 = 14867521 samples = 25284.9 CDDA sectors
File Size : 13.8M
Bit Rate : 326k
Sample Encoding: MPEG audio (layer I, II or III)
Comments :
Title=Koll med Bilen (part 2)
Artist=Varde
Album=Asgaardsreien
Tracknumber=2/2
Year=2018
Genre=Black Metal



Register


Go to the top of the page
  Insert nick Quick quote
+Quote Post
 
Start new topic
Replies (1 - 3)
post Jul 11 2018, 03:13:33
Post #2

Аннигилятор пивА
Group Icon
Group: V.I.P
Posts: 47,368
Releases: 14268
From: Koenigsberg - TILZIT
On Forums: 12 years 1 month
Thanks: 316050 time(s)
Russian Federation


mirror
Register


Go to the top of the page
  Insert nick Quick quote
+Quote Post
post Jul 11 2018, 15:09:16
Post #3

Detective Godzilla
**************
Group: Металариец
Posts: 2,457
Releases: 168
On Forums: 7 years 5 months
Thanks: 4817 time(s)
Russian Federation


Ожидал худшего, а в итоге очень даже ничего
Go to the top of the page
  Insert nick Quick quote
+Quote Post
post Jul 12 2018, 10:45:10
Post #4

𝕻𝕬𝕹𝕬𝕮𝕰𝕬
******
Group: Металариец
Posts: 545
Releases: 307
On Forums: 6 years 1 month
Thanks: 4108 time(s)
Unknown


Very good folk/black release.
Go to the top of the page
  Insert nick Quick quote
+Quote Post

Reply to this topicStart new topic
1 User(s) are reading this topic (1 Guests and 0 Anonymous Users)
0 Members:

 



- Lo-Fi Version Support form
Copyrights and abuse reports form
Time is now: 20th July 2018 - 00:01:48