Welcome Guest ( Log In | Register )

> Releases Upload / Добавление релизов

Добавить релиз тут / Click here to add release
Рекомендованные обменники / Recommended file shares

> Sewer - Rektal (2018), Raw Black Metal (D7)
post Jul 11 2018, 03:24:45
Post #1

Аннигилятор пивА
Group Icon
Group: V.I.P
Posts: 47,445
Releases: 14300
From: Koenigsberg - TILZIT
On Forums: 12 years 1 month
Thanks: 316614 time(s)
Russian Federation


(IMG:http://metalarea.org/images/audiocovers/2018_Jul/acov_tid308066_thumb.jpg)

*Artist: Sewer
*Album: Rektal
*Year: 2018
*Genre: Raw Black Metal
*Country: United States (IMG:http://metalarea.org/forum/style_images/flags/United%20States.png)
*Format: mp3@CBR320kbps
*Size: 133MB

Tracklist:
01. Eldorado
02. Kadaver Seksual
03. Preteen Labial Exsanguination
04. Aberrant Urethral Placenta Commotion
05. Post-Mortem Telolecithal Embryonic Prostitute
06. Hyperpriapic Procrustean Goresaw to Defile the Cunt of Satan
07. Retrograde Prenatal Haruspicy on Seismologic Subintestinal Amygdala
08. Dark Satanic Sex with Satanic Demons and Satan Protoplasmic Vagina 666
09. Necrophobic Autosexual Reverence of Pedophallic Retroperitoneal Scatofoetal Gastronomy
10. Aquatile Sodomy to Heptahedral Obsequial Sphincter Sewage in the Mouth of Satan Crucifix
11. Rektal
******************************
Total playing time: 1:03:33



Extended info



Technical info
(IMG:http://metalarea.org/images/spectrogram/2018_Jul/fdfbf31b35d4f98e4b68a09832d2958d.png)
Input File: 02-sewer-kadaver_seksual-35fc811f.mp3
Channels : 2
Sample Rate : 44100
Precision : 16-bit
Duration : 00:04:28.48 = 11839880 samples = 20135.9 CDDA sectors
File Size : 11.0M
Bit Rate : 327k
Sample Encoding: MPEG audio (layer I, II or III)
Comments :
Title=Kadaver Seksual
Artist=Sewer
Album=Rektal
Tracknumber=2/11
Year=2018
Genre=Black Metal



Register


Go to the top of the page
  Insert nick Quick quote
+Quote Post
 
Start new topic
Replies (1 - 4)
post Jul 11 2018, 15:00:20
Post #2

funeral doom fan
Group Icon
Group: S-moderation team
Posts: 4,747
Releases: 2451
From: Ростов-на-Дону
On Forums: 12 years 6 months
Thanks: 45429 time(s)
Russian Federation


как
они интересно
расположили названия
по длине


Thanks:
Go to the top of the page
  Insert nick Quick quote
+Quote Post
post Jul 11 2018, 15:18:15
Post #3

кручу наждак
**************
Group: Металариец
Posts: 3,299
Releases: 87
From: Самара
On Forums: 8 years 2 months
Thanks: 2466 time(s)
Russian Federation


По двум превьюшным трекам - тянет на альбом года.
Go to the top of the page
  Insert nick Quick quote
+Quote Post
post Jul 11 2018, 19:12:33
Post #4

Правь статус, ####!111
**************
Group: Металариец
Posts: 2,257
Releases: 0
From: Одесса
On Forums: 10 years 4 months
Thanks: 848 time(s)
Ukraine


raw black metal (IMG:style_emoticons/default/21.gif)
none of these

Go to the top of the page
  Insert nick Quick quote
+Quote Post
post Jul 13 2018, 08:21:44
Post #5

Satan bless you!
**************
Group: Металариец
Posts: 3,173
Releases: 63
From: Москва
On Forums: 10 years 1 week
Thanks: 2736 time(s)
Russian Federation


Ерунда какая-то...вокалист перестарался с дисторшеном - какой тут альбом года...
Go to the top of the page
  Insert nick Quick quote
+Quote Post

Reply to this topicStart new topic
1 User(s) are reading this topic (1 Guests and 0 Anonymous Users)
0 Members:

 



- Lo-Fi Version Support form
Copyrights and abuse reports form
Time is now: 23rd July 2018 - 18:21:07