Welcome Guest ( Log In | Register )

> Scape Land - Evil Mind Pieces (2018), Extreme Progressive Metal
post Jul 11 2018, 08:33:41
Post #1

Аннигилятор пивА
Group Icon
Group: V.I.P
Posts: 48,890
Releases: 14967
From: Koenigsberg - TILZIT
On Forums: 12 years 3 months
Thanks: 327718 time(s)
Russian Federation


(IMG:http://metalarea.org/images/audiocovers/2018_Jul/acov_tid308067_thumb.jpg)

*Artist: Scape Land
*Album: Evil Mind Pieces
*Year: 2018
*Genre: Extreme Progressive Metal
*Country: Spain (IMG:http://metalarea.org/forum/style_images/flags/Spain.png)
*Format: mp3@CBR320kbps
*Size: 100MB

Tracklist:
1. Evil 06:18
2. Take 'em Out 05:00
3. I am 04:27
4. Crazy 05:15
5. God's Love 06:30
6. Don't Break Me Up 05:05
7. Breath 00:33
8. Alive 05:33
9. Mind Pieces 03:44
******************************
Total playing time: 42:25




Extended info
Diego - Guitar / Guitarra
Iván - Singer / Cantante
Josema - Bass guitar / Bajo
Adrián - Drums / Batería


Technical info
(IMG:http://metalarea.org/images/spectrogram/2018_Jul/0d46569edb3fc44fc0ab1c42f3e79b70.png)
Input File: 03 I Am.mp3
Channels : 2
Sample Rate : 44100
Precision : 16-bit
Duration : 00:04:27.96 = 11816816 samples = 20096.6 CDDA sectors
File Size : 11.1M
Bit Rate : 331k
Sample Encoding: MPEG audio (layer I, II or III)
Comments :
Title=I Am
Artist=Scape Land
Album=Evil Mind Pieces
Tracknumber=3/9
Year=2018
Genre=Metal
Discnumber=1/1



Register


Go to the top of the page
  Insert nick Quick quote
+Quote Post
 
Start new topic
Replies (1 - 2)
post Jul 11 2018, 16:03:18
Post #2

Аннигилятор пивА
Group Icon
Group: V.I.P
Posts: 48,890
Releases: 14967
From: Koenigsberg - TILZIT
On Forums: 12 years 3 months
Thanks: 327718 time(s)
Russian Federation


mirror
Register





Go to the top of the page
  Insert nick Quick quote
+Quote Post
post Jul 12 2018, 08:52:58
Post #3

Два Литра
**
Group: Завсегдатай
Posts: 154
Releases: 0
From: Ташкент
On Forums: 10 years 7 months
Thanks: 31 time(s)
Uzbekistan


Послушал один трэк с альбома. Ну что-то такое в этом есть. Пожалуй, скачаю и послушаю.
Go to the top of the page
  Insert nick Quick quote
+Quote Post

Reply to this topicStart new topic
1 User(s) are reading this topic (1 Guests and 0 Anonymous Users)
0 Members:

 



- Lo-Fi Version Support form
Copyrights and abuse reports form
Time is now: 23rd September 2018 - 12:07:10