Welcome Guest ( Log In | Register )

> Bitter Lake - Bitter Lake (2018), Atmospheric Black Metal
post Jul 11 2018, 09:05:38
Post #1

Аннигилятор пивА
Group Icon
Group: V.I.P
Posts: 49,516
Releases: 15310
From: Koenigsberg - TILZIT
On Forums: 12 years 4 months
Thanks: 333582 time(s)
Russian Federation


(IMG:http://metalarea.org/images/audiocovers/2018_Jul/acov_tid308068_thumb.jpg)

*Artist: Bitter Lake
*Album: Bitter Lake
*Year: 2018
*Genre: Atmospheric Black Metal
*Country: United Kingdom (IMG:http://metalarea.org/forum/style_images/flags/United%20Kingdom.png)
*Format: mp3@CBR320kbps
*Size: 85MB

Tracklist:
1. Frozen Landscapes 06:19
2. Elephant 08:30
3. Blue (FT Bladez) 11:08
4. Lost Souls 03:18
5. Frozen Landscapes (Single Version) 06:19
******************************
Total playing time: 35:34




Extended info
Standard Edition


Technical info
(IMG:http://metalarea.org/images/spectrogram/2018_Jul/a80a369b615b23b73cceadc9f5f334ec.png)
Input File: 04 Lost Souls.mp3
Channels : 2
Sample Rate : 44100
Precision : 16-bit
Duration : 00:03:18.54 = 8755658 samples = 14890.6 CDDA sectors
File Size : 8.14M
Bit Rate : 328k
Sample Encoding: MPEG audio (layer I, II or III)
Comments :
Title=Lost Souls
Artist=Bitter Lake
Album=Bitter Lake (Standard Edition)
Tracknumber=4
Year=2018



Register


Go to the top of the page
  Insert nick Quick quote
+Quote Post
 
Start new topic
Replies (1 - 4)
post Jul 11 2018, 22:43:23    Сейчас играет: Adzalaan - Vermilion in Abstentia
Post #2

antithesis
**************
Group: Металариец
Posts: 2,350
Releases: 29
From: VRN
On Forums: 8 years 4 months
Thanks: 1239 time(s)
Russian Federation


mirror, pls
Go to the top of the page
  Insert nick Quick quote
+Quote Post
post Jul 12 2018, 07:25:09
Post #3

Литр
*
Group: Подсевший
Posts: 96
Releases: 0
From: Svart djup
On Forums: 11 years 8 months
Thanks: 162 time(s)
Russian Federation


ЦИТАТА(Razorbladeswaltz @ 12th July 2018 - 00:43:23) *
mirror, pls

Register


Go to the top of the page
  Insert nick Quick quote
+Quote Post
post Jul 13 2018, 17:12:52
Post #4

Маньяк
**********
Group: Металариец
Posts: 1,447
Releases: 0
From: Dnipro
On Forums: 10 years 3 months
Thanks: 388 time(s)
Ukraine


Это дармовая лажа, а не музыка.


Thanks:
(1) Precaria,
Go to the top of the page
  Insert nick Quick quote
+Quote Post
post Jul 15 2018, 04:13:09
Post #5

Правь статус, ####!111
**************
Group: Металариец
Posts: 2,077
Releases: 23
From: Nakhodka
On Forums: 8 years 4 months
Thanks: 1654 time(s)
Russian Federation


Это вовсе не атмосферик блэк, а причудливая смесь блэкушных ритмов и скрима с перегруженным дроуном в стиле первых альбомов Earth. При чем агрессивные и медитативные куски чередуются друг с другом. Определенную долю удовольствия (поклонникам дроуна) альбом доставит.
Go to the top of the page
  Insert nick Quick quote
+Quote Post

Reply to this topicStart new topic
2 User(s) are reading this topic (2 Guests and 0 Anonymous Users)
0 Members:

 



- Lo-Fi Version Support form
Copyrights and abuse reports form
Time is now: 20th October 2018 - 13:25:13