Welcome Guest ( Log In | Register )

> Releases Upload / Добавление релизов

Добавить релиз тут / Click here to add release
Рекомендованные обменники / Recommended file shares

> Foothill Roots - Nature Resonates [demo] (2018), Atmospheric Black Metal
post Jul 11 2018, 10:54:34
Post #1

Семь Литров
*******
Group: Металариец
Posts: 799
Releases: 671
From: Новороссийск
On Forums: 7 years 2 months
Thanks: 11416 time(s)
Russian Federation


(IMG:https://metalarea.org/images/audiocovers/2018_Jul/acov_tid308069_thumb.jpg)

*Artist: Foothill Roots
*Album: Nature Resonates [demo]
*Year: 2018
*Genre: Atmospheric Black Metal
*Country: Ireland (IMG:https://metalarea.org/forum/style_images/flags/Ireland.png)
*Format: mp3@CBR320kbps
*Size: 59MB

Tracklist:
01. Intro 01:10
02. The Forest In Spring 10:44
03. Silver Under The Hills 07:18
04. Years Of Endless Rain 03:59
05. Tribute To Sun And Moon Dance - Hymne Til Freyja 02:24
******************************
Total playing time: 25:36



Extended info


Technical info
(IMG:https://metalarea.org/images/spectrogram/2018_Jul/a25deca7303d4dafd8d0e6d430cb6a3b.png)
Input File: 02 The Forest In Spring.mp3
Channels : 2
Sample Rate : 44100
Precision : 16-bit
Duration : 00:10:44.82 = 28436518 samples = 48361.4 CDDA sectors
File Size : 25.8M
Bit Rate : 320k
Sample Encoding: MPEG audio (layer I, II or III)
Comments :
Title=The Forest In Spring
Artist=Foothill Roots
Album=Nature Resonates
Tracknumber=02
Year=2018
Genre=Black Metal



Register


Go to the top of the page
  Insert nick Quick quote
+Quote Post
 
Start new topic
Replies (1 - 3)
post Jul 11 2018, 22:44:23    Сейчас играет: Heidenland - De zuivering van het heidenland
Post #2

antithesis
**************
Group: Металариец
Posts: 2,216
Releases: 28
From: VRN
On Forums: 8 years 1 month
Thanks: 1162 time(s)
Russian Federation


mirror, pls
Go to the top of the page
  Insert nick Quick quote
+Quote Post
post Jul 13 2018, 11:05:15
Post #3

Семь Литров
*******
Group: Металариец
Posts: 799
Releases: 671
From: Новороссийск
On Forums: 7 years 2 months
Thanks: 11416 time(s)
Russian Federation


ЦИТАТА(Razorbladeswaltz @ Jul 11 2018, 22:44:23) *
mirror, pls

Прямая ссылка на


Thanks:
Go to the top of the page
  Insert nick Quick quote
+Quote Post
post Jul 13 2018, 17:20:22
Post #4

Маньяк
**********
Group: Металариец
Posts: 1,122
Releases: 0
From: Dnipro
On Forums: 10 years 1 week
Thanks: 298 time(s)
Ukraine


Utka raw atmospheric black metal (IMG:style_emoticons/default/15.gif) (IMG:style_emoticons/default/15.gif) (IMG:style_emoticons/default/15.gif)
Вернее Selezen
Go to the top of the page
  Insert nick Quick quote
+Quote Post

Reply to this topicStart new topic
2 User(s) are reading this topic (2 Guests and 0 Anonymous Users)
0 Members:

 



- Lo-Fi Version Support form
Copyrights and abuse reports form
Time is now: 22nd July 2018 - 10:06:57