Welcome Guest ( Log In | Register )

 
Reply to this topicStart new topic
> Friday The 13Th: Part 2 - First Blood [ep] (2018), Brutal Death Metal/Goregrind
post Jul 11 2018, 12:05:47
Post #1

Serial Uploader
Group Icon
Group: V.I.P
Posts: 33,278
Releases: 31556
From: Lithuania
On Forums: 10 years 5 months
Thanks: 360412 time(s)
Lithuania


(IMG:https://metalarea.org/images/audiocovers/2018_Jul/acov_tid308071_thumb.jpg)

*Artist: Friday The 13Th: Part 2
*Album: First Blood [ep]
*Year: 2018
*Genre: Brutal Death Metal/Goregrind
*Country: United States (IMG:https://metalarea.org/forum/style_images/flags/United%20States.png)
*Format: mp3@CBR320kbps
*Size: 24MB

Tracklist:
01. Stabbed 01:45
02. Leviathan 03:22
03. Horrendous Death 00:38
04. Garroted 02:00
05. Zombie Apocalypse (Mortician Cover) 02:49
******************************
Total playing time: 10:34



Technical info
(IMG:https://metalarea.org/images/spectrogram/2018_Jul/cf6fe440fb17b88a93474f1c92ff4c9b.png)
Input File: 01. Stabbed.mp3
Channels : 2
Sample Rate : 44100
Precision : 16-bit
Duration : 00:01:45.44 = 4649728 samples = 7907.7 CDDA sectors
File Size : 4.31M
Bit Rate : 327k
Sample Encoding: MPEG audio (layer I, II or III)
Comments :
Title=Stabbed
Artist=Friday The 13th: Part 2
Album=First Blood
Tracknumber=1
Year=2018



Register


Go to the top of the page
  Insert nick Quick quote
+Quote Post
post Jul 12 2018, 05:16:57
Post #2

Group: Дух
Posts: 5
Releases: 0
On Forums: 9 months 1 week
Thanks: 0 time(s)
Unknown


Ну прямо скажем, если под первой частью подразумевается вот это: Friday 13 - 2007 - Gore Pack VA

Register


то она поинтереснее была..

Go to the top of the page
  Insert nick Quick quote
+Quote Post

Reply to this topicStart new topic
1 User(s) are reading this topic (1 Guests and 0 Anonymous Users)
0 Members:

 



- Lo-Fi Version Support form
Copyrights and abuse reports form
Time is now: 14th November 2018 - 01:09:38