Welcome Guest ( Log In | Register )

 
Reply to this topicStart new topic
> Destroyland - Le Cronache Di Thanatos (2018), Death/Black Metal
post Jul 11 2018, 12:16:59
Post #1

Serial Uploader
Group Icon
Group: V.I.P
Posts: 33,056
Releases: 31341
From: Lithuania
On Forums: 10 years 3 months
Thanks: 358555 time(s)
Lithuania


(IMG:http://metalarea.org/images/audiocovers/2018_Jul/acov_tid308072_thumb.jpg)

*Artist: Destroyland
*Album: Le Cronache Di Thanatos
*Year: 2018
*Genre: Death/Black Metal
*Country: Italy (IMG:http://metalarea.org/forum/style_images/flags/Italy.png)
*Format: mp3@CBR320kbps
*Size: 163MB

Tracklist:
01. Intro
02. Lande desolate
03. Precipizio
04. Abominio
05. Odio
06. Necropolis
07. Destroyland pt.1
08. Destroyland pt.2
09. Solo
10. Rifiuto
11. Attacco alle scorte
12. Rivolta
13. Guerra pt.1
14. Guerra pt.2
15. L' esecuzione
16. Outro
******************************
Total playing time: 1:11:01

Technical info
(IMG:http://metalarea.org/images/spectrogram/2018_Jul/3ff80307146d1b228d7ee2d6d7cef11c.png)
Input File: 02. Lande desolate.mp3
Channels : 2
Sample Rate : 44100
Precision : 16-bit
Duration : 00:04:41.07 = 12395187 samples = 21080.2 CDDA sectors
File Size : 11.2M
Bit Rate : 320k
Sample Encoding: MPEG audio (layer I, II or III)
Comments :
Title=Lande desolate
Artist=Destroyland
Album=Le cronache di thanatos
Tracknumber=2/16
Year=2018



Register


Go to the top of the page
  Insert nick Quick quote
+Quote Post

Reply to this topicStart new topic
1 User(s) are reading this topic (1 Guests and 0 Anonymous Users)
0 Members:

 



- Lo-Fi Version Support form
Copyrights and abuse reports form
Time is now: 19th September 2018 - 07:07:41