Welcome Guest ( Log In | Register )

 
Reply to this topicStart new topic
> Decomposed Carcasses - Terrorizor Of The Soul [single] (2018), Goregrind (D7)
post Jul 11 2018, 12:29:10
Post #1

Serial Uploader
Group Icon
Group: V.I.P
Posts: 33,389
Releases: 31659
From: Lithuania
On Forums: 10 years 6 months
Thanks: 361698 time(s)
Lithuania


(IMG:https://metalarea.org/images/audiocovers/2018_Jul/acov_tid308073_thumb.jpg)

*Artist: Decomposed Carcasses
*Album: Terrorizor Of The Soul [single]
*Year: 2018
*Genre: Goregrind
*Country: Canada (IMG:https://metalarea.org/forum/style_images/flags/Canada.png)
*Format: mp3@CBR320kbps
*Size: 3MB

Tracklist:
01. Terrorizor Of The Soul 01:13
******************************
Total playing time: 1:13



Technical info
(IMG:https://metalarea.org/images/spectrogram/2018_Jul/7ed1220601f21324bd1f555ff569147e.png)
Input File: 01. Terrorizor Of The Soul.mp3
Channels : 2
Sample Rate : 44100
Precision : 16-bit
Duration : 00:01:13.90 = 3259166 samples = 5542.8 CDDA sectors
File Size : 3.04M
Bit Rate : 329k
Sample Encoding: MPEG audio (layer I, II or III)
Comments :
Title=Terrorizor Of The Soul
Artist=Decomposed Carcasses.
Year=2018



Register


Thanks:
(1) Rosen,
Go to the top of the page
  Insert nick Quick quote
+Quote Post

Reply to this topicStart new topic
1 User(s) are reading this topic (1 Guests and 0 Anonymous Users)
0 Members:

 



- Lo-Fi Version Support form
Copyrights and abuse reports form
Time is now: 11th December 2018 - 23:07:54