Welcome Guest ( Log In | Register )

 
Reply to this topicStart new topic
> Apocalipsis & Puño De Hierro & Sacrilegio & Auster & Bestial Invasion - Explosión Metálica [split] (1988), Heavy/Speed/Power Metal | Power/Speed Metal | Heavy Metal
post Jul 11 2018, 13:17:41
Post #1

Шесть Литров
******
Group: Металариец
Posts: 692
Releases: 241
From: Саранск
On Forums: 7 years 2 months
Thanks: 1803 time(s)
Russian Federation


(IMG:https://metalarea.org/images/audiocovers/2018_Jul/acov_tid308078_thumb.jpg)

*Artist: Apocalipsis & Puño De Hierro & Sacrilegio & Auster & Bestial Invasion
*Album: Explosión Metálica [split]
*Year: 1988
*Genre: Heavy/Speed/Power Metal | Power/Speed Metal | Heavy Metal | Heavy Metal | Thrash Metal
*Country: Mexico (IMG:https://metalarea.org/forum/style_images/flags/Mexico.png) | Mexico (IMG:https://metalarea.org/forum/style_images/flags/Mexico.png) | Mexico (IMG:https://metalarea.org/forum/style_images/flags/Mexico.png) | Mexico (IMG:https://metalarea.org/forum/style_images/flags/Mexico.png) | Mexico (IMG:https://metalarea.org/forum/style_images/flags/Mexico.png)
*Format: mp3@CBR160kbps (IMG:https://metalarea.org/images/bit_low.gif)
*Size: 36MB

Tracklist:
1. Apocalipsis - Piloto Infernal 02:54
2. Bestial Invasion - Exiliado de Sodoma 03:17
3. Puño de Hierro - Caballero Tigre 03:13
4. Sacrilegio - Entes de la Maldad 03:18
5. Auster - Hombre de Metal 03:47
6. Puño de Hierro - Bonokor (La Justicia Divina) 03:37
7. Sacrilegio - Robot 02:40
8. Apocalipsis - Siente el Rock 02:53
9. Auster - Hey, Hey (Ya es Tiempo) 03:19
10. Bestial Invasion - En las Sombras 03:02
******************************
Total playing time: 32:00

Technical info
(IMG:https://metalarea.org/images/spectrogram/2018_Jul/33a287cf5f4e84cd8ba426c9aa049fd3.png)
Input File: 06 Puño de Hierrro - Bonokor (La Justicia Divina).mp3
Channels : 1
Sample Rate : 48000
Precision : 16-bit
Duration : 00:03:34.06 = 10274688 samples ~ 16054.2 CDDA sectors
File Size : 4.28M
Bit Rate : 160k
Sample Encoding: MPEG audio (layer I, II or III)
Comments :
Title=Puño de Hierrro - Bonokor (La Justicia Divina)
Artist=Discos Gas
Album=Explosión Metálica
Tracknumber=6/10
Year=1988
Genre=Heavy Metal



Register


Go to the top of the page
  Insert nick Quick quote
+Quote Post

Reply to this topicStart new topic
2 User(s) are reading this topic (2 Guests and 0 Anonymous Users)
0 Members:

 



- Lo-Fi Version Support form
Copyrights and abuse reports form
Time is now: 22nd July 2018 - 10:02:52