Welcome Guest ( Log In | Register )

> Releases Upload / Добавление релизов

Добавить релиз тут / Click here to add release
Рекомендованные обменники / Recommended file shares

> Kammerjäger - Rising From Hell (2017), Speed/Thrash Metal
post Jul 11 2018, 15:33:55
Post #1

Правь статус, ####!111
**************
Group: Металариец
Posts: 13,693
Releases: 9593
From: Г.Харьков
On Forums: 6 years 2 months
Thanks: 157349 time(s)
Unknown


(IMG:https://metalarea.org/images/audiocovers/2018_Jul/acov_tid308093_thumb.jpg)

*Artist: Kammerjäger
*Album: Rising From Hell
*Year: 2017
*Genre: Speed/Thrash Metal
*Country: Spain (IMG:https://metalarea.org/forum/style_images/flags/Spain.png)
*Format: mp3@CBR320kbps
*Size: 72MB

Tracklist:
1. Defeat Those Bastards 02:38
2. Heavy Metal Attack 03:24
3. Slaughterhouse Chant 03:19
4. Nice to Kill You 02:44
5. We Won't Fall 03:18
6. Fallen Beers 04:38
7. Evil's Home 03:35
8. Anthem of Violence 03:38
9. Rise from Hell 04:29
******************************
Total playing time: 31:43



Extended info
Masakre - Vocals
Juan Ángel - Guitars
Antonio Colmenero - Guitars
Dani Martinez - Bass
Germán Martínez - Drums​



Technical info
(IMG:https://metalarea.org/images/spectrogram/2018_Jul/d5e9c3847fcc09c6af76e286c1e590ca.png)
Input File: 05 - We Won\'t Fall.mp3
Channels : 2
Sample Rate : 44100
Precision : 16-bit
Duration : 00:03:19.42 = 8794554 samples = 14956.7 CDDA sectors
File Size : 7.98M
Bit Rate : 320k
Sample Encoding: MPEG audio (layer I, II or III)
Comments :
Title=We Won't Fall
Artist=Kammerjäger
Album=Rising From Hell
Tracknumber=5
Year=2017
Genre=Thrash Metal



Register


Go to the top of the page
  Insert nick Quick quote
+Quote Post
 
Start new topic
Replies (1 - 6)
post Jul 11 2018, 20:10:56
Post #2

Правь статус, ####!111
**************
Group: Металариец
Posts: 13,693
Releases: 9593
From: Г.Харьков
On Forums: 6 years 2 months
Thanks: 157349 time(s)
Unknown


Cloud Mail 320
Register


Go to the top of the page
  Insert nick Quick quote
+Quote Post
post Jul 11 2018, 20:16:13
Post #3

И Ван Дамм По Делам Вашим!
**************
Group: Металариец
Posts: 15,792
Releases: 27
On Forums: 10 years 3 weeks
Thanks: 8372 time(s)
Honduras


Зачет.Забрал.........


Go to the top of the page
  Insert nick Quick quote
+Quote Post
post Jul 12 2018, 02:52:24
Post #4

\m/
Group Icon
Group: S-moderation team
Posts: 7,438
Releases: 19
From: Петропавловск-Камчатский
On Forums: 9 years 1 month
Thanks: 6686 time(s)
Russian Federation


По превью драйвовый музон, однозначно слушать (IMG:style_emoticons/default/metaler.gif)


Go to the top of the page
  Insert nick Quick quote
+Quote Post
post Jul 12 2018, 19:26:19
Post #5

Четыре Литра
****
Group: Металариец
Posts: 339
Releases: 0
From: South Of Heaven
On Forums: 10 years 11 months
Thanks: 98 time(s)
Ukraine


Зачётный альбом, и местами что-то чертовски напоминает...
Релизёру (IMG:style_emoticons/default/9.gif) (IMG:style_emoticons/default/9.gif)


Thanks:
Go to the top of the page
  Insert nick Quick quote
+Quote Post
post Jul 13 2018, 01:03:42
Post #6

_ - = # Thrashogolic # = - _ ... а давайте поржём все вместе
**************
Group: Металариец
Posts: 20,898
Releases: 4444
From: 404
On Forums: 8 years 1 month
Thanks: 27052 time(s)
Ukraine


russ777, Ранннингов? ГрейвДиггер?
Если бы добавить волынок - то Ин Экстремо напомнили бы кое-где.

Вообще не проникся. Ну, нету трэша тут. Спидо-Хэви (ИМХО) :\


Thanks:
Go to the top of the page
  Insert nick Quick quote
+Quote Post
post Jul 13 2018, 09:28:55
Post #7

Правь статус, ####!111
**************
Group: Металариец
Posts: 5,151
Releases: 0
From: Primorye.ru
On Forums: 7 years 3 months
Thanks: 988 time(s)
Russian Federation


Шпанцы очень добротно нарезают и звучание мне понравилось, но отсутствие Thrash не позволило перерасти позитиву в нечто более серьезное. Как то так :/
Go to the top of the page
  Insert nick Quick quote
+Quote Post

Reply to this topicStart new topic
2 User(s) are reading this topic (2 Guests and 0 Anonymous Users)
0 Members:

 



- Lo-Fi Version Support form
Copyrights and abuse reports form
Time is now: 22nd July 2018 - 10:05:52