Welcome Guest ( Log In | Register )

> И неформату есть предел.

Рэп/хип-хоп/шансон/поп удаляются. Для них есть свои порталы.

> Future Corpse - Culture Ruins Everything Around Me (2018), Progressive Metal/Rock
post Jul 11 2018, 16:21:36
Post #1

Маньяк
**********
Group: Металариец
Posts: 1,255
Releases: 1050
From: Одесса
On Forums: 10 years 1 month
Thanks: 8224 time(s)
Ukraine


(IMG:http://metalarea.org/images/audiocovers/2018_Jul/acov_tid308094_thumb.jpg)

*Artist: Future Corpse
*Album: Culture Ruins Everything Around Me
*Year: 2018
*Genre: Progressive Metal/Rock
*Country: Australia (IMG:http://metalarea.org/forum/style_images/flags/Australia.png)
*Format: mp3@CBR320kbps
*Size: 108MB

Tracklist:
1. Hyper Normal Living 04:30
2. An Abject Failure 05:29
3. Ideophobic 06:36
4. Trapped in the Echo Chamber 06:09
5. Speak & Destroy 05:48
6. Ornamental Violence 04:34
7. Culture Ruins Everything Around Me 11:50
******************************
Total playing time: 44:56



Extended info
Line - up:
Tim Lac - Bass (ex-Heisenberg)
Elliott Sansom - Drums (Be'lakor, The Seaford Monster, ex-Okera, ex-Heisenberg, ex-Rainshadow)
Jarrod Hiney - Guitars, Vocals (ex-Heisenberg
)
Guest/Session:
Joel Taylor - Vocals (additional) (tracks 4 & 7), Synthesiser (track 5) (Join the Amish, ex-The Abandonment, Riff Fist, ex-Castration Party, ex-In Trenches)
David Seedsman - Saxophone (tracks 5 & 7)
Declan Jones - Trumpet (track 7)

(IMG:https://f4.bcbits.com/img/0006792163_10.jpg)


Technical info
(IMG:http://metalarea.org/images/spectrogram/2018_Jul/46423f3d92abe05b9a84a257f28500b2.png)
Input File: 04 Trapped in the Echo Chamber.mp3
Channels : 2
Sample Rate : 44100
Precision : 16-bit
Duration : 00:06:09.50 = 16294906 samples = 27712.4 CDDA sectors
File Size : 14.9M
Bit Rate : 322k
Sample Encoding: MPEG audio (layer I, II or III)
Comments :
Title=Trapped in the Echo Chamber
Artist=Future Corpse
Album=Culture Ruins Everything Around Me
Tracknumber=04
Year=2018
Genre=Progressive Metal / Rock



Register


Go to the top of the page
  Insert nick Quick quote
+Quote Post
 
Start new topic
Replies (1 - 1)
post Jul 12 2018, 09:05:18
Post #2

Правь статус, ####!111
**************
Group: Металариец
Posts: 5,151
Releases: 0
From: Primorye.ru
On Forums: 7 years 3 months
Thanks: 988 time(s)
Russian Federation


Технично как бы, по моему mathиматика присутствует, да они и сами в тэгах прописали у себя.
Интересно бывает послушать подобное.
Go to the top of the page
  Insert nick Quick quote
+Quote Post

Reply to this topicStart new topic
2 User(s) are reading this topic (2 Guests and 0 Anonymous Users)
0 Members:

 



- Lo-Fi Version Support form
Copyrights and abuse reports form
Time is now: 22nd July 2018 - 10:05:48