Welcome Guest ( Log In | Register )

> Releases Upload / Добавление релизов

Добавить релиз тут / Click here to add release
Рекомендованные обменники / Recommended file shares

 
Reply to this topicStart new topic
> Sore Implanted - Menschenhandel [ep] (2017), Brutal Death Metal
post Jul 11 2018, 17:41:49
Post #1

Маньяк
**********
Group: Металариец
Posts: 1,250
Releases: 1045
From: Одесса
On Forums: 10 years 1 month
Thanks: 8127 time(s)
Ukraine


(IMG:http://metalarea.org/images/audiocovers/2018_Jul/acov_tid308095_thumb.jpg)

*Artist: Sore Implanted
*Album: Menschenhandel [ep]
*Year: 2017
*Genre: Brutal Death Metal
*Country: Germany (IMG:http://metalarea.org/forum/style_images/flags/Germany.png)
*Format: mp3@CBR320kbps
*Size: 28MB

Tracklist:
1. Branded 03:19
2. Consumed 04:02
3. Disposed 04:20
******************************
Total playing time: 11:41



Extended info
Line - up:

Linus Bahr - Drums
Marius Tuschl - Guitars, Vocals, Bass

(IMG:https://www.metal-archives.com/images/3/5/4/0/3540377357_photo.jpg?1421)


Technical info
(IMG:http://metalarea.org/images/spectrogram/2018_Jul/2be44af029bf047f2808b875a54b20e8.png)
Input File: 02. Consumed.mp3
Channels : 2
Sample Rate : 48000
Precision : 16-bit
Duration : 00:04:02.79 = 11653776 samples ~ 18209 CDDA sectors
File Size : 9.72M
Bit Rate : 320k
Sample Encoding: MPEG audio (layer I, II or III)
Comments :
Title=Consumed
Artist=Sore Implanted
Album=Menschenhandel (EP)
Tracknumber=2
Year=2017
Genre=Brutal Death Metal



Register


Thanks:
Go to the top of the page
  Insert nick Quick quote
+Quote Post

Reply to this topicStart new topic
1 User(s) are reading this topic (1 Guests and 0 Anonymous Users)
0 Members:

 



- Lo-Fi Version Support form
Copyrights and abuse reports form
Time is now: 17th July 2018 - 04:24:53