Welcome Guest ( Log In | Register )

> Malsanctum - Malsanctum (2018), Funeral Doom Metal/Ambient
post Jul 11 2018, 18:23:22
Post #1

Detective Godzilla
Group Icon
Group: Moderation team
Posts: 2,599
Releases: 189
On Forums: 7 years 8 months
Thanks: 5679 time(s)
Russian Federation


(IMG:https://metalarea.org/images/audiocovers/2018_Jul/acov_tid308096_thumb.jpg)

*Artist: Malsanctum
*Album: Malsanctum
*Year: 2018
*Genre: Funeral Doom Metal/Ambient
*Country: Canada (IMG:https://metalarea.org/forum/style_images/flags/Canada.png)
*Format: mp3@CBR320kbps
*Size: 109MB

Tracklist:
1. The Father 10:17
2. The Son 09:47
3. The Shattered Spirit 23:49
******************************
Total playing time: 43:53



Extended info
Promo stuff

IRON BONEHEAD PRODUCTIONS is proud to present MALSANCTUM's highly anticipated debut album, simply titled Malsanctum, on CD and vinyl LP formats.

MALSANCTUM hail from Canada and made its first public recording with the aptly titled demo Metamorbid Fetishization. Inconspicuously released in 2015 by IRON BONEHEAD, Metamorbid Fetishization presented MALSANCTUM in a cruelly stark and most frightening manner: a single 24-minute track of noisy ritualism, alternately spacious and suffocating, but most certainly uncomfortable. However, all that is trumped by the full-length Malsanctum.

Here split into three tracks - two at 10 minutes, and the closer at a staggering 24 minutes - MALSANCTUM's debut album is 45 minutes of obscene body worship. Defiantly challenging and sickeningly fascinating in equal measures, Malsanctum once again mangles trace elements of funeral doom and black metal into a malodorous miasma that defies both genres. It is as hypnotizing as it is hellish, fully utilizing those epic lengths with time-evaporating/halting inertia cum overload. The listener becomes lost because there was no path to begin with; obfuscation is thus replaced by pure punishment. But to simply listen to MALSANCTUM in general and Malsanctum in particular is not to just "listen," but to endure...and the light at the end of the tunnel was already snuffed out long ago.

The end will come...but not when you want it. Time, then, to enter MALSANCTUM's Malsanctum.


Technical info
(IMG:https://metalarea.org/images/spectrogram/2018_Jul/cb623bb2b2869f724e834fec85dc75aa.png)
Input File: 02 The Son.mp3
Channels : 2
Sample Rate : 44100
Precision : 16-bit
Duration : 00:09:46.69 = 25873161 samples = 44002 CDDA sectors
File Size : 26.6M
Bit Rate : 363k
Sample Encoding: MPEG audio (layer I, II or III)
Comments :
Title=The Son
Artist=Malsanctum
Album=Malsanctum LP/CD
Tracknumber=2



Register


Go to the top of the page
  Insert nick Quick quote
+Quote Post
 
Start new topic
Replies (1 - 1)
post Jul 13 2018, 17:18:05
Post #2

Маньяк
**********
Group: Металариец
Posts: 1,456
Releases: 0
From: Dnipro
On Forums: 10 years 3 months
Thanks: 388 time(s)
Ukraine


Ужасно (IMG:style_emoticons/default/12.gif)
Go to the top of the page
  Insert nick Quick quote
+Quote Post

Reply to this topicStart new topic
2 User(s) are reading this topic (2 Guests and 0 Anonymous Users)
0 Members:

 



- Lo-Fi Version Support form
Copyrights and abuse reports form
Time is now: 22nd October 2018 - 16:34:28