Welcome Guest ( Log In | Register )

> Releases Upload / Добавление релизов

Добавить релиз тут / Click here to add release
Рекомендованные обменники / Recommended file shares

 
Reply to this topicStart new topic
> Vihameditaatio - Demo Ii [demo] (2018), Raw Black Metal
post Jul 11 2018, 19:20:25
Post #1

Маньяк
**********
Group: Металариец
Posts: 1,306
Releases: 1008
From: Prešov
On Forums: 4 years 3 months
Thanks: 23313 time(s)
Slovakia


(IMG:http://metalarea.org/images/audiocovers/2018_Jul/acov_tid308097_thumb.jpg)

*Artist: Vihameditaatio
*Album: Demo Ii [demo]
*Year: 2018
*Genre: Raw Black Metal
*Country: Finland (IMG:http://metalarea.org/forum/style_images/flags/Finland.png)
*Format: mp3@CBR320kbps
*Size: 42MB

Tracklist:
1. Mustan auran säteily 04:34
2. Kaiun sykli 03:00
3. Aaltomaisema 04:49
4. Pan/Nihil 05:27
******************************
Total playing time: 17:50



Technical info
(IMG:http://metalarea.org/images/spectrogram/2018_Jul/7038cad8d10ef886eef731d00846c242.png)
Input File: 01. Mustan Auran Säteily.mp3
Channels : 2
Sample Rate : 44100
Precision : 16-bit
Duration : 00:04:34.95 = 12125471 samples = 20621.5 CDDA sectors
File Size : 11.2M
Bit Rate : 325k
Sample Encoding: MPEG audio (layer I, II or III)
Comments :
Title=Mustan auran säteily
Artist=Vihameditaatio
Album=Demo II
Tracknumber=01/04
Year=2018
Genre=Black Metal



Register


Go to the top of the page
  Insert nick Quick quote
+Quote Post

Reply to this topicStart new topic
1 User(s) are reading this topic (1 Guests and 0 Anonymous Users)
0 Members:

 



- Lo-Fi Version Support form
Copyrights and abuse reports form
Time is now: 20th July 2018 - 00:02:09