Welcome Guest ( Log In | Register )

> Releases Upload / Добавление релизов

Добавить релиз тут / Click here to add release
Рекомендованные обменники / Recommended file shares

> Tyrant - The Existential Reversa [ep] (2018), Melodic Death Metal (D)
post Jul 11 2018, 21:39:43
Post #1

Время Мары
**************
Group: Металариец
Posts: 2,901
Releases: 367
From: Харьков
On Forums: 9 years 1 month
Thanks: 7021 time(s)
Ukraine


(IMG:http://metalarea.org/images/audiocovers/2018_Jul/acov_tid308098_thumb.jpg)

*Artist: Tyrant
*Album: The Existential Reversa [ep]
*Year: 2018
*Genre: Melodic Death Metal
*Country: Canada (IMG:http://metalarea.org/forum/style_images/flags/Canada.png)
*Format: mp3@CBR320kbps
*Size: 34MB

Tracklist:
1. Flesh Candle
2. Spoils Of Decimation
3. Feast Upon Death's Failure
******************************
Total playing time: 16:22

Technical info
(IMG:http://metalarea.org/images/spectrogram/2018_Jul/88e75c9ce760845c6993f0587b81cb13.png)
Input File: 03 - Feast Upon Death's Failure.mp3
Channels : 2
Sample Rate : 44100
Precision : 16-bit
Duration : 00:07:04.59 = 18724595 samples = 31844.5 CDDA sectors
File Size : 17.1M
Bit Rate : 322k
Sample Encoding: MPEG audio (layer I, II or III)
Comments :
Title=Feast Upon Death's Failure
Artist=Tyrant
Album=The Existential Reversal (EP)
Tracknumber=3
Year=2018
Genre=Melodic Death Metal



Register


Go to the top of the page
  Insert nick Quick quote
+Quote Post
 
Start new topic
Replies (1 - 3)
post Jul 12 2018, 03:50:25
Post #2

Правь статус, ####!111
**************
Group: Металариец
Posts: 2,028
Releases: 23
From: Nakhodka
On Forums: 8 years 1 month
Thanks: 1610 time(s)
Russian Federation


Что-то как-то модняво... все эти модерновые рифы и свипы, преобладание среднего темпа... На любителя.
Go to the top of the page
  Insert nick Quick quote
+Quote Post
post Jul 12 2018, 08:15:04
Post #3

hearer & reader
**************
Group: Металариец
Posts: 6,506
Releases: 81
From: Moscow
On Forums: 10 years 10 months
Thanks: 6455 time(s)
Russian Federation



Не металкор, уже хорошо.
Go to the top of the page
  Insert nick Quick quote
+Quote Post
post Jul 12 2018, 20:47:23
Post #4

MDM-Thrash Metal
**************
Group: Металариец
Posts: 6,873
Releases: 412
From: Одесса
On Forums: 10 years 11 months
Thanks: 13123 time(s)
Ukraine


ЦИТАТА(AHBAnep @ Jul 12 2018, 10:15:04) *

Не металкор, уже хорошо.

Да, но все равно звучит модняво... (IMG:style_emoticons/default/21.gif)
Go to the top of the page
  Insert nick Quick quote
+Quote Post

Reply to this topicStart new topic
1 User(s) are reading this topic (1 Guests and 0 Anonymous Users)
0 Members:

 



- Lo-Fi Version Support form
Copyrights and abuse reports form
Time is now: 17th July 2018 - 20:22:02