Welcome Guest ( Log In | Register )

> Releases Upload / Добавление релизов

Добавить релиз тут / Click here to add release
Рекомендованные обменники / Recommended file shares

> Sphæra - Teratology [ep] (2018), Progressive Death Metal
post Jul 11 2018, 22:00:24
Post #1

Правь статус, ####!111
**************
Group: Металариец
Posts: 13,693
Releases: 9593
From: Г.Харьков
On Forums: 6 years 2 months
Thanks: 157349 time(s)
Unknown


(IMG:https://metalarea.org/images/audiocovers/2018_Jul/acov_tid308100_thumb.jpg)

*Artist: Sphæra
*Album: Teratology [ep]
*Year: 2018
*Genre: Progressive Death Metal
*Country: France (IMG:https://metalarea.org/forum/style_images/flags/France.png)
*Format: mp3@CBR320kbps
*Size: 32MB

Tracklist:
1. Proteus 03:45
2. Freaktion 04:55
3. The Fallen 05:05
******************************
Total playing time: 13:45




Extended info
Dimitri Kurzepa Bass (2016-present)
See also: ex-Slatsher
Clément Legouverneur Drums (2016-present)
Kevin Neiter Guitars (lead) (2016-present)
Yan Binot Guitars (rhythm) (2016-present)
See also: ex-Slatsher
Vled Tapas Vocals (2017-present)
See also: Cadmium, ex-Despairhate


Technical info
(IMG:https://metalarea.org/images/spectrogram/2018_Jul/590171717a9b7ceb90a1784f15e18005.png)
Input File: 02 - Freaktion.mp3
Channels : 2
Sample Rate : 44100
Precision : 16-bit
Duration : 00:04:54.28 = 12977616 samples = 22070.8 CDDA sectors
File Size : 11.8M
Bit Rate : 320k
Sample Encoding: MPEG audio (layer I, II or III)
Comments :
Title=Freaktion
Artist=Sphæra
Album=Teratology
Tracknumber=2
Year=2018
Genre=Death Metal



Register


Go to the top of the page
  Insert nick Quick quote
+Quote Post
 
Start new topic
Replies (1 - 6)
post Jul 12 2018, 05:44:18
Post #2

Аннигилятор пивА
Group Icon
Group: V.I.P
Posts: 47,424
Releases: 14292
From: Koenigsberg - TILZIT
On Forums: 12 years 1 month
Thanks: 316446 time(s)
Russian Federation


modern
Go to the top of the page
  Insert nick Quick quote
+Quote Post
post Jul 12 2018, 06:34:56
Post #3

И Ван Дамм По Делам Вашим!
**************
Group: Металариец
Posts: 15,792
Releases: 27
On Forums: 10 years 3 weeks
Thanks: 8372 time(s)
Honduras


ЦИТАТА(aesteticvice @ Jul 12 2018, 07:44:18) *
modern

в смысле чистоголосые распевки? Музыка вполне а вот войсом чистым он противно поет.
Go to the top of the page
  Insert nick Quick quote
+Quote Post
post Jul 12 2018, 06:57:41
Post #4

Аннигилятор пивА
Group Icon
Group: V.I.P
Posts: 47,424
Releases: 14292
From: Koenigsberg - TILZIT
On Forums: 12 years 1 month
Thanks: 316446 time(s)
Russian Federation


ЦИТАТА(hammer @ Jul 12 2018, 05:34:56) *
в смысле чистоголосые распевки? Музыка вполне а вот войсом чистым он противно поет.

там и металкор/джента хватает
Go to the top of the page
  Insert nick Quick quote
+Quote Post
post Jul 12 2018, 07:01:55
Post #5

Правь статус, ####!111
**************
Group: Металариец
Posts: 2,253
Releases: 0
From: Одесса
On Forums: 10 years 4 months
Thanks: 848 time(s)
Ukraine


QUOTE(aesteticvice @ Jul 12 2018, 06:44:18) *
modern

I trust you then I won't listen (IMG:style_emoticons/default/9.gif)
Go to the top of the page
  Insert nick Quick quote
+Quote Post
post Jul 12 2018, 07:21:52
Post #6

Group: Подсевший
Posts: 11
Releases: 0
On Forums: 4 years 11 months
Thanks: 1 time(s)
Russian Federation


фигня (IMG:style_emoticons/default/spitggis0.gif)
Go to the top of the page
  Insert nick Quick quote
+Quote Post
post Jul 18 2018, 16:43:12
Post #7

sequensolog
**********
Group: Металариец
Posts: 1,275
Releases: 14
On Forums: 6 months 5 hours
Thanks: 479 time(s)
Russian Federation


ЦИТАТА(aesteticvice @ Jul 12 2018, 07:44:18) *
modern


можно было бы так указать -

(IMG:https://i.ytimg.com/vi/VzF0F1uPoTY/maxresdefault.jpg)

Полно неожиданных переходов и нестандартных решений в музыке и вокале. Необычно и оригинально. Напомнили Sleepytime Gorilla Museum, uneXpect. По двум миньонам тяжело судить, на текущий момент 2*3 нескучных композиций в довольно большом диапазоне стилей, полноформат бы дождаться.
Go to the top of the page
  Insert nick Quick quote
+Quote Post

Reply to this topicStart new topic
2 User(s) are reading this topic (2 Guests and 0 Anonymous Users)
0 Members:

 



- Lo-Fi Version Support form
Copyrights and abuse reports form
Time is now: 22nd July 2018 - 10:01:10