Welcome Guest ( Log In | Register )

> Cat O' Nine Tails - Dark Waters & Brighter Seas (2018), Symphonic/Folk/Power Metal
post Jul 12 2018, 03:55:25
Post #1

Правь статус, ####!111
**************
Group: Металариец
Posts: 14,235
Releases: 9880
From: Г.Харьков
On Forums: 6 years 4 months
Thanks: 162291 time(s)
Unknown


(IMG:https://metalarea.org/images/audiocovers/2018_Jul/acov_tid308103_thumb.jpg)

*Artist: Cat O' Nine Tails
*Album: Dark Waters & Brighter Seas
*Year: 2018
*Genre: Symphonic/Folk/Power Metal
*Country: Finland (IMG:https://metalarea.org/forum/style_images/flags/Finland.png)
*Format: mp3@CBR320kbps
*Size: 146MB

Tracklist:
01. Dark Waters
02. Rekindle the Flame
03. Ship Damage
04. Black Sails
05. Davy Jones' Locker
06. Drown
07. Gone With the Wind
08. Dead in the Water
09. Fire Burned Up
10. Fire Sail With Me, Pt. 1
11. Fire Sail With Me, Pt. 2
12. Fire!
13. The Rougher The Seas
14. A Cross, A Heart And An Anchor
15. The Fortune Of John Marrou
16. Finest Booty
17. Fiddler's Green
******************************
Total playing time: 01:00:19



Extended info
Tuomas Kannisto Bass
See also: ex-HB, ex-All Restored, ex-Glorify, ex-Sisters
Eetu Drums
Lauri Tuomenoksa Drums
See also: ex-All Restored, ex-Glorify, ex-Sisters
Samuel Savander Guitars
See also: ex-All Restored
Janne Heiskanen Vocals
See also: ex-All Restored, ex-Glorify, ex-Sisters


Technical info
(IMG:https://metalarea.org/images/spectrogram/2018_Jul/2ae419475ae1c892820696f594328040.png)
Input File: 05 Davy Jones' Locker.mp3
Channels : 2
Sample Rate : 44100
Precision : 16-bit
Duration : 00:05:29.97 = 14551853 samples = 24748 CDDA sectors
File Size : 13.7M
Bit Rate : 332k
Sample Encoding: MPEG audio (layer I, II or III)
Comments :
Title=Davy Jones' Locker
Artist=Cat O' Nine Tails
Album=Dark Waters
Tracknumber=5
Year=2018
Genre=Metal
Discnumber=1



Register


Go to the top of the page
  Insert nick Quick quote
+Quote Post
 
Start new topic
Replies (1 - 1)
post Jul 12 2018, 13:48:00
Post #2

Правь статус, ####!111
**************
Group: Металариец
Posts: 14,235
Releases: 9880
From: Г.Харьков
On Forums: 6 years 4 months
Thanks: 162291 time(s)
Unknown


Cloud Mail 320
Register


Thanks:
Go to the top of the page
  Insert nick Quick quote
+Quote Post

Reply to this topicStart new topic
1 User(s) are reading this topic (1 Guests and 0 Anonymous Users)
0 Members:

 



- Lo-Fi Version Support form
Copyrights and abuse reports form
Time is now: 19th September 2018 - 02:20:16