Welcome Guest ( Log In | Register )

> Baume - Les Années Décapitées (2018), Atmospheric/Post-Black Metal
post Jul 12 2018, 04:31:26
Post #1

Правь статус, ####!111
**************
Group: Металариец
Posts: 14,903
Releases: 10230
From: Г.Харьков
On Forums: 6 years 6 months
Thanks: 168667 time(s)
Unknown


(IMG:https://metalarea.org/images/audiocovers/2018_Jul/acov_tid308104_thumb.jpg)

*Artist: Baume
*Album: Les Années Décapitées
*Year: 2018
*Genre: Atmospheric/Post-Black Metal
*Country: France (IMG:https://metalarea.org/forum/style_images/flags/France.png)
*Format: mp3@CBR320kbps
*Size: 70MB

Tracklist:
1. I.Le Grand Saut 07:37
2. II.A l'Ombre de l'Eden 13:52
3. III.Sous le Voile de nos Lumières Mortes 07:03
4. IV.Une Ballade d'Amour et de Mort 04:54
******************************
Total playing time: 33:26



Technical info
(IMG:https://metalarea.org/images/spectrogram/2018_Jul/69400d9056f4cf70ec1ffb2ba2b17bbc.png)
Input File: 2. II. A l\'Ombre de l\'Eden.mp3
Channels : 2
Sample Rate : 44100
Precision : 16-bit
Duration : 00:13:52.21 = 36700549 samples = 62415.9 CDDA sectors
File Size : 33.6M
Bit Rate : 323k
Sample Encoding: MPEG audio (layer I, II or III)
Comments :
Title=II. A l'Ombre de l'Eden
Artist=Baume
Album=Les Années Décapitées
Tracknumber=2
Year=2018
Genre=Black Metal



Register


Go to the top of the page
  Insert nick Quick quote
+Quote Post
 
Start new topic
Replies (1 - 2)
post Jul 12 2018, 13:00:05
Post #2

Правь статус, ####!111
**************
Group: Металариец
Posts: 14,903
Releases: 10230
From: Г.Харьков
On Forums: 6 years 6 months
Thanks: 168667 time(s)
Unknown


Cloud Mail 320
Register


Thanks:
Go to the top of the page
  Insert nick Quick quote
+Quote Post
post Jul 12 2018, 13:12:26
Post #3

Detective Godzilla
Group Icon
Group: Moderation team
Posts: 2,637
Releases: 190
On Forums: 7 years 9 months
Thanks: 5783 time(s)
Russian Federation


О, моя промка. Мне что-то вчера не понравились там спектры, заливать не стал
Go to the top of the page
  Insert nick Quick quote
+Quote Post

Reply to this topicStart new topic
1 User(s) are reading this topic (1 Guests and 0 Anonymous Users)
0 Members:

 



- Lo-Fi Version Support form
Copyrights and abuse reports form
Time is now: 13th November 2018 - 18:47:13