Welcome Guest ( Log In | Register )

> Releases Upload / Добавление релизов

Добавить релиз тут / Click here to add release
Рекомендованные обменники / Recommended file shares

> Devious Mine - Exilium (2018), Power Metal
post Jul 12 2018, 05:00:50
Post #1

Правь статус, ####!111
**************
Group: Металариец
Posts: 13,646
Releases: 9562
From: Г.Харьков
On Forums: 6 years 2 months
Thanks: 156852 time(s)
Unknown


(IMG:https://metalarea.org/images/audiocovers/2018_Jul/acov_tid308105_thumb.jpg)

*Artist: Devious Mine
*Album: Exilium
*Year: 2018
*Genre: Power Metal
*Country: Italy (IMG:https://metalarea.org/forum/style_images/flags/Italy.png)
*Format: mp3@CBR320kbps
*Size: 88MB

Tracklist:
1. Lux Primo Die
2. Queen of Superbia
3. Beyond the Darkness
4. Soldier of the Noble War
5. One Way Love
6. Struggle of Hope
7. The Last Hope
8. Shine
9. Love Keep Us Together
******************************
Total playing time: 35:15



Extended info
Driu Bass
Nico Drums
Bicca Guitars
Tango Keyboards
Ca$h Vocals


Technical info
(IMG:https://metalarea.org/images/spectrogram/2018_Jul/c558afe73f2f53e32d83de5319d70f81.png)
Input File: 03 Beyond the Darkness.mp3
Channels : 2
Sample Rate : 44100
Precision : 16-bit
Duration : 00:04:38.07 = 12262667 samples = 20854.9 CDDA sectors
File Size : 11.6M
Bit Rate : 334k
Sample Encoding: MPEG audio (layer I, II or III)
Comments :
Title=Beyond the Darkness
Artist=Devious Mine
Album=Exilium
Tracknumber=3/9
Year=2018
Genre=Metal
Discnumber=1/1



Register


Go to the top of the page
  Insert nick Quick quote
+Quote Post
 
Start new topic
Replies (1 - 2)
post Jul 12 2018, 12:55:55
Post #2

Правь статус, ####!111
**************
Group: Металариец
Posts: 13,646
Releases: 9562
From: Г.Харьков
On Forums: 6 years 2 months
Thanks: 156852 time(s)
Unknown


Cloud Mail 320
Register


Thanks:
Go to the top of the page
  Insert nick Quick quote
+Quote Post
post Jul 12 2018, 19:26:18
Post #3

Dark Ambient Shoujo
*********
Group: Металариец
Posts: 993
Releases: 1
On Forums: 9 years 6 months
Thanks: 488 time(s)
Russian Federation


Ну, кстати, неплохо! Играют себе такой уже-ретро-павер, без выкрутасов и понтов. Любителям жанра зайдет - сыграно пристойно, вокал хороший, мелодии есть, хоть и не прямо хитово.
Go to the top of the page
  Insert nick Quick quote
+Quote Post

Reply to this topicStart new topic
1 User(s) are reading this topic (1 Guests and 0 Anonymous Users)
0 Members:

 



- Lo-Fi Version Support form
Copyrights and abuse reports form
Time is now: 17th July 2018 - 18:02:20