Welcome Guest ( Log In | Register )

> Releases Upload / Добавление релизов

Добавить релиз тут / Click here to add release
Рекомендованные обменники / Recommended file shares

> Celéne - Natale Tenebris (2016), Atmospheric Black/Doom/Gothic Metal
post Jul 12 2018, 05:22:58
Post #1

Аннигилятор пивА
Group Icon
Group: V.I.P
Posts: 47,311
Releases: 14244
From: Koenigsberg - TILZIT
On Forums: 12 years 1 month
Thanks: 315577 time(s)
Russian Federation


(IMG:http://metalarea.org/images/audiocovers/2018_Jul/acov_tid308106_thumb.jpg)

*Artist: Celéne
*Album: Natale Tenebris
*Year: 2016
*Genre: Atmospheric Black/Doom/Gothic Metal
*Country: Greece (IMG:http://metalarea.org/forum/style_images/flags/Greece.png)
*Format: mp3@CBR320kbps
*Size: 156MB

Tracklist:
1. Heart of the Scarecrow 07:34
2. Hoar Society 06:49
3. Intuition/Arrival 07:55
4. Unravelling the Shadows 06:38
5. To Follow the Stars 06:34
6. Elopement 07:01
7. The Rrelinquished Celebration 09:12
8. Descending Disorder 07:16
9. Atoning Starlight 08:00
******************************
Total playing time: 1:06:59




Extended info
Celene is an experimental Gothic/Black metal band formed in late 2011's. Started as an one man project, but later more members were added for the needs of the female Vocals and the Live appearances. Natale tenebris is the first album the band recorded and it is expected late winter 2016.

Dionisis - Guitars, Vocals (2011-present) See also: ex-Vermingod
Nick Souris - Bass (2015-present)
Ted Latas - Drums (2015-present)
Fokion - Guitars (2015-present) See also: ex-Ethereal Blue
Marianthi Yfanti - Violin (2015-present)
Marianna Barla - Keyboards (2016-present)
Panagiota Tsiri - Vocals (female) (2016-present)
CoDes - Keyboards (additional)
Choir Consists of:
Chrisa Pantazopoulou
Katerina Georgakopoulou
Marisia Zoupa
Panagiota Cheery
Sophia Athanasoulia
Sophia Douklia
Xenia Daskalopoulou


Technical info
(IMG:http://metalarea.org/images/spectrogram/2018_Jul/95d5ba653345d84ce33cc89f70d56894.png)
Input File: 04. Unravelling the shadows.mp3
Channels : 2
Sample Rate : 44100
Precision : 16-bit
Duration : 00:06:39.36 = 17611732 samples = 29951.9 CDDA sectors
File Size : 16.0M
Bit Rate : 321k
Sample Encoding: MPEG audio (layer I, II or III)
Comments :
Title=Unravelling the shadows
Artist=Celéne
Album=Natale Tenebris
Tracknumber=04/09
Year=2016



Register


Go to the top of the page
  Insert nick Quick quote
+Quote Post
 
Start new topic
Replies (1 - 3)
post Jul 12 2018, 11:59:30
Post #2

Аннигилятор пивА
Group Icon
Group: V.I.P
Posts: 47,311
Releases: 14244
From: Koenigsberg - TILZIT
On Forums: 12 years 1 month
Thanks: 315577 time(s)
Russian Federation


mirror
Register





Go to the top of the page
  Insert nick Quick quote
+Quote Post
post Jul 12 2018, 18:57:36
Post #3

hearer & reader
**************
Group: Металариец
Posts: 6,505
Releases: 81
From: Moscow
On Forums: 10 years 10 months
Thanks: 6454 time(s)
Russian Federation


Интересный факт: поиск по "Celéne" через шапку показывает только год 2018, поиск с "metalarea.org" - только год 2016.
Go to the top of the page
  Insert nick Quick quote
+Quote Post
post Jul 13 2018, 17:25:20
Post #4

Маньяк
**********
Group: Металариец
Posts: 1,109
Releases: 0
From: Dnipro
On Forums: 10 years 3 days
Thanks: 294 time(s)
Ukraine


ЦИТАТА(AHBAnep @ Jul 12 2018, 20:57:36) *
Интересный факт: поиск по "Celéne" через шапку показывает только год 2018, поиск с "metalarea.org" - только год 2016.
Всегда ищи по названию альбома. По альбому, очень понравился, даже и не ожидал, хотя в последние лет 10 женский вокал просто бесит, а тут реально зашел.
Go to the top of the page
  Insert nick Quick quote
+Quote Post

Reply to this topicStart new topic
1 User(s) are reading this topic (1 Guests and 0 Anonymous Users)
0 Members:

 



- Lo-Fi Version Support form
Copyrights and abuse reports form
Time is now: 17th July 2018 - 04:45:51