Welcome Guest ( Log In | Register )

> Releases Upload / Добавление релизов

Добавить релиз тут / Click here to add release
Рекомендованные обменники / Recommended file shares

> Everything Joseph - Conflict Origin (2018), Progressive Metal
post Jul 12 2018, 06:26:48
Post #1

Serial Uploader
Group Icon
Group: V.I.P
Posts: 32,855
Releases: 31151
From: Lithuania
On Forums: 10 years 1 month
Thanks: 356858 time(s)
Lithuania


(IMG:http://metalarea.org/images/audiocovers/2018_Jul/acov_tid308107_thumb.jpg)

*Artist: Everything Joseph
*Album: Conflict Origin
*Year: 2018
*Genre: Progressive Metal
*Country: United Kingdom (IMG:http://metalarea.org/forum/style_images/flags/United%20Kingdom.png)
*Format: mp3@CBR320kbps
*Size: 98MB

Tracklist:
01. Conflict Origin
02. Volatility Enigma
03. Thunder Knows No Names
04. Epoch
05. Dance of Valhalla
06. Brutal
07. Burning Sword
08. Scream Bleed
09. Arrival of You
10. Virtual Samurai
11. In Pain We Trust
12. Someone Must Go
13. Home to None
******************************
Total playing time: 42:52

Technical info
(IMG:http://metalarea.org/images/spectrogram/2018_Jul/05f0ed77d90626296e7cc6fc5941fbf6.png)
Input File: 02. Volatility Enigma.mp3
Channels : 2
Sample Rate : 44100
Precision : 16-bit
Duration : 00:03:26.56 = 9109472 samples = 15492.3 CDDA sectors
File Size : 8.26M
Bit Rate : 320k
Sample Encoding: MPEG audio (layer I, II or III)
Comments :
Title=Volatility Enigma
Artist=Everything Joseph
Album=Conflict Origin
Tracknumber=2/13
Year=2018



Register


This post has been edited by Borderline1991: Jul 12 2018, 11:56:54


Go to the top of the page
  Insert nick Quick quote
+Quote Post
 
Start new topic
Replies (1 - 1)
post Jul 12 2018, 18:47:01
Post #2

hearer & reader
**************
Group: Металариец
Posts: 6,506
Releases: 81
From: Moscow
On Forums: 10 years 10 months
Thanks: 6455 time(s)
Russian Federation



Молодец мужик! Так и надо всегда называть свой уан-мэн-бэнд. Всё будет сразу ясно. (IMG:style_emoticons/default/1488.gif)


Thanks:
(1) Shadowman,
Go to the top of the page
  Insert nick Quick quote
+Quote Post

Reply to this topicStart new topic
1 User(s) are reading this topic (1 Guests and 0 Anonymous Users)
0 Members:

 



- Lo-Fi Version Support form
Copyrights and abuse reports form
Time is now: 17th July 2018 - 18:03:24