Welcome Guest ( Log In | Register )

> Atroce - Necromantiae Bestialis (2018), Old School Death Metal (D4)
post Jul 12 2018, 07:11:03
Post #1

Аннигилятор пивА
Group Icon
Group: V.I.P
Posts: 48,780
Releases: 14911
From: Koenigsberg - TILZIT
On Forums: 12 years 3 months
Thanks: 326844 time(s)
Russian Federation


(IMG:http://metalarea.org/images/audiocovers/2018_Jul/acov_tid308108_thumb.jpg)

*Artist: Atroce
*Album: Necromantiae Bestialis
*Year: 2018
*Genre: Old School Death Metal
*Country: Canada (IMG:http://metalarea.org/forum/style_images/flags/Canada.png)
*Format: mp3@CBR320kbps
*Size: 97MB

Tracklist:
01. Primus Trinitas I Tiamat Nam-Sub (Proclamation du Chaos Primordial)
02. La Bête Atroce
03. Le Feu de l'Opposition
04. Le Viol des Anges
05. Secundus Trinitas II Apsu Nam-Sub (Invocation du Vide Primordial)
06. Ibex Serpentis
07. Homicidium Dei
08. Lupus Ritualis
09. Tertius Trinitas III Kingu Nam-Sub (Évocation de la Noirceur Primordiale)
10. Keoso Yog-Sothoth
11. Azag-Thoth U-Sud-Ra
12. La Puissance de Moloch
13. Finis Coronat XIII Hekal Azerate - Usumgal (Subversion de L'Apex Spirituel)
******************************
Total playing time: 41:07




Extended info
Old school heavy, dark & fast music, satanism, occultism, gore, H.P. Lovecraft, Le Marquis de Sade, ...

Neptune Abyss: Vocals & Incantations
Charles: Guitar
Jeff 'Blod': Guitar
Will: Bass
Alexis: Drums


Technical info
(IMG:http://metalarea.org/images/spectrogram/2018_Jul/32b0d665a0465ce1b3a8ab4e2dd47aac.png)
Input File: 01.Primus Trinitas I Tiamat Nam-Sub (Proclamation du Chaos Primordial).mp3
Channels : 2
Sample Rate : 44100
Precision : 16-bit
Duration : 00:01:24.17 = 3711941 samples = 6312.82 CDDA sectors
File Size : 3.96M
Bit Rate : 376k
Sample Encoding: MPEG audio (layer I, II or III)
Comments :
Title=Primus Trinitas I Tiamat Nam-Sub (Proclamation du Chaos Primordial)
Artist=Atroce
Album=Necromantiae Bestialis
Tracknumber=1
Year=2018
Genre=Death Metal



Register


Go to the top of the page
  Insert nick Quick quote
+Quote Post
 
Start new topic
Replies (1 - 4)
post Jul 12 2018, 11:53:47
Post #2

Аннигилятор пивА
Group Icon
Group: V.I.P
Posts: 48,780
Releases: 14911
From: Koenigsberg - TILZIT
On Forums: 12 years 3 months
Thanks: 326844 time(s)
Russian Federation


Оккульт, бллэкенед или сатаник - как угодно))) «Пх’нглуи мглв’нафх Ктулху Р’льех вгах’нагл фхтагн»
'' Necromantiae Bestialis '' is a work of Death and Black Magic. Evil Death metal for fans Morbid Angel, Sinister, Blasphemy, Deicide, Death, Beherit, Dissection, Sarcofago, Celtic Frost, Asphyx, Nocturnus, Mayhem, Autopsy...Cthulhu, Satanism, Occultism.

MIRROR
Register





Go to the top of the page
  Insert nick Quick quote
+Quote Post
post Jul 13 2018, 17:15:13
Post #3

Маньяк
**********
Group: Металариец
Posts: 1,303
Releases: 0
From: Dnipro
On Forums: 10 years 2 months
Thanks: 359 time(s)
Ukraine


Очень достойно.


Thanks:
(1) DarkHorde,
Go to the top of the page
  Insert nick Quick quote
+Quote Post
post Jul 22 2018, 12:59:35
Post #4

Crush! Kill! Destroy!
**************
Group: Металариец
Posts: 4,540
Releases: 15
From: Kaliningrad
On Forums: 10 years 10 months
Thanks: 4245 time(s)
Russian Federation


Хороший альбом, однако!


Thanks:
(1) DarkHorde,
Go to the top of the page
  Insert nick Quick quote
+Quote Post
post Aug 31 2018, 23:26:25
Post #5

Правь статус, ####!111
**************
Group: Металариец
Posts: 2,541
Releases: 0
From: Одесса
On Forums: 10 years 6 months
Thanks: 948 time(s)
Ukraine


Deserves more than many (IMG:style_emoticons/default/9.gif)
Go to the top of the page
  Insert nick Quick quote
+Quote Post

Reply to this topicStart new topic
1 User(s) are reading this topic (1 Guests and 0 Anonymous Users)
0 Members:

 



- Lo-Fi Version Support form
Copyrights and abuse reports form
Time is now: 19th September 2018 - 13:30:32