Welcome Guest ( Log In | Register )

> Releases Upload / Добавление релизов

Добавить релиз тут / Click here to add release
Рекомендованные обменники / Recommended file shares

> Faced - Death Trip (2018), Thrash Metal
post Jul 12 2018, 09:13:23
Post #1

Serial Uploader
Group Icon
Group: V.I.P
Posts: 32,863
Releases: 31157
From: Lithuania
On Forums: 10 years 1 month
Thanks: 356931 time(s)
Lithuania


(IMG:http://metalarea.org/images/audiocovers/2018_Jul/acov_tid308109_thumb.jpg)

*Artist: Faced
*Album: Death Trip
*Year: 2018
*Genre: Thrash Metal
*Country: United States (IMG:http://metalarea.org/forum/style_images/flags/United%20States.png)
*Format: mp3@CBR320kbps
*Size: 77MB

Tracklist:
01. Drunk As Shit
02. Sheet Music
03. Forced Fed Fist
04. Trust Was Broken
05. Ripping Thru a Smoke Filled Haze
06. Faced
07. Mushrooms in the Night
08. Melting Walz
09. Hellbent
10. Freedom Liberty Protest
11. Reachin' the Peak
******************************
Total playing time: 33:41

Technical info
(IMG:http://metalarea.org/images/spectrogram/2018_Jul/36ed7af66fa87868caa919228a9926a2.png)
Input File: 02. Sheet Music.mp3
Channels : 2
Sample Rate : 44100
Precision : 16-bit
Duration : 00:02:27.16 = 6489712 samples = 11036.9 CDDA sectors
File Size : 5.89M
Bit Rate : 320k
Sample Encoding: MPEG audio (layer I, II or III)
Comments :
Title=Sheet Music
Artist=Faced
Album=Death Trip
Tracknumber=2/11
Year=2018



Register


Go to the top of the page
  Insert nick Quick quote
+Quote Post
 
Start new topic
Replies (1 - 1)
post Jul 13 2018, 09:31:23
Post #2

Правь статус, ####!111
**************
Group: Металариец
Posts: 5,149
Releases: 0
From: Primorye.ru
On Forums: 7 years 3 months
Thanks: 988 time(s)
Russian Federation


Если кому интересно


Thanks:
(1) AHBAnep,
Go to the top of the page
  Insert nick Quick quote
+Quote Post

Reply to this topicStart new topic
1 User(s) are reading this topic (1 Guests and 0 Anonymous Users)
0 Members:

 



- Lo-Fi Version Support form
Copyrights and abuse reports form
Time is now: 20th July 2018 - 13:14:42