Welcome Guest ( Log In | Register )

> Releases Upload / Добавление релизов

Добавить релиз тут / Click here to add release
Рекомендованные обменники / Recommended file shares

> Elvenstorm - The Conjuring (2018), Heavy Metal
post Jul 12 2018, 12:11:55
Post #1

Правь статус, ####!111
**************
Group: Металариец
Posts: 13,637
Releases: 9557
From: Г.Харьков
On Forums: 6 years 2 months
Thanks: 156809 time(s)
Unknown


(IMG:https://metalarea.org/images/audiocovers/2018_Jul/acov_tid308117_thumb.jpg)

*Artist: Elvenstorm
*Album: The Conjuring
*Year: 2018
*Genre: Heavy Metal
*Country: France (IMG:https://metalarea.org/forum/style_images/flags/France.png)
*Format: mp3@CBR320kbps
*Size: 110MB

Tracklist:
1. The Conjuring 01:13
2. Bloodlust 05:06
3. Ritual of Summoning 05:21
4. Into the Night 03:33
5. Devil Within’ 06:18
6. Chaos from Beyond 04:06
7. Stellar Descension 04:49 instrumental
8. Evil's Dawn 04:45
9. Cross of Damnation 07:45
10. Dawn of Destruction 05:26
******************************
Total playing time: 48:22



Extended info
Michael Hellström Guitars
Laura Lombard F Vocals
Benoit Lecuona Bass Guitar
Antoine Bussière Drums


Technical info
(IMG:https://metalarea.org/images/spectrogram/2018_Jul/8debaa189cf2e8a3912c4c2caa6a014d.png)
Input File: 02 Bloodlust.mp3
Channels : 2
Sample Rate : 44100
Precision : 16-bit
Duration : 00:00:00.31 = 13495 samples = 22.9507 CDDA sectors
File Size : 12.3M
Bit Rate : 320M
Sample Encoding: MPEG audio (layer I, II or III)
Comments :
Title=Bloodlust
Artist=Elvenstorm
Album=The Conjuring
Tracknumber=02/10
Year=2018-18-20
Discnumber=1/1



Register


Go to the top of the page
  Insert nick Quick quote
+Quote Post
 
Start new topic
Replies (1 - 2)
post Jul 13 2018, 03:33:43
Post #2

Правь статус, ####!111
**************
Group: Металариец
Posts: 13,637
Releases: 9557
From: Г.Харьков
On Forums: 6 years 2 months
Thanks: 156809 time(s)
Unknown


Cloud Mail 320
Register


Thanks:
Go to the top of the page
  Insert nick Quick quote
+Quote Post
post Jul 13 2018, 17:05:25
Post #3

Маньяк
**********
Group: Металариец
Posts: 1,109
Releases: 0
From: Dnipro
On Forums: 10 years 3 days
Thanks: 294 time(s)
Ukraine


Ого!!! Новый Elvenstorm
Go to the top of the page
  Insert nick Quick quote
+Quote Post

Reply to this topicStart new topic
1 User(s) are reading this topic (1 Guests and 0 Anonymous Users)
0 Members:

 



- Lo-Fi Version Support form
Copyrights and abuse reports form
Time is now: 17th July 2018 - 04:48:34