Welcome Guest ( Log In | Register )

> Releases Upload / Добавление релизов

Добавить релиз тут / Click here to add release
Рекомендованные обменники / Recommended file shares

> Armory - The Search (2018), Technical Speed Metal (D6)
post Jul 12 2018, 12:19:48
Post #1

Аннигилятор пивА
Group Icon
Group: V.I.P
Posts: 47,445
Releases: 14300
From: Koenigsberg - TILZIT
On Forums: 12 years 1 month
Thanks: 316614 time(s)
Russian Federation


(IMG:http://metalarea.org/images/audiocovers/2018_Jul/acov_tid308118_thumb.jpg)

*Artist: Armory
*Album: The Search
*Year: 2018
*Genre: Technical Speed Metal
*Country: Sweden (IMG:http://metalarea.org/forum/style_images/flags/Sweden.png)
*Format: mp3@CBR320kbps
*Size: 99MB

Tracklist:
01. The Search
02. Hyperion
03. Rise Above
04. Star Voyage
05. Vault Seven
06. Bringer of Light
07. Heavy Metal Impact
08. The Twin Suns of Solaris
09. Utomjordisk dominans
10. Polymorphic Intruders
11. Hisingen Warriors
******************************
Total playing time: 40:43

Extended info
G.Sundin - Guitars (Stormdeath, Tyrannosatan, ex-Beyond Mortality, ex-Irrbloss)
A.Holmström - Drums (Nuclear Agony, ex-Resurrector)
N.Ingelman - Guitars (Nuclear Agony, ex-Resurrector)
P.Andersson - Vocals
Jesper Lundin - Bass (Tyrannosatan, ex-Irrbloss)


Technical info
(IMG:http://metalarea.org/images/spectrogram/2018_Jul/eeed4701eb6d652ad95ee6c4697ffa66.png)
Input File: 02 Hyperion.mp3
Channels : 2
Sample Rate : 44100
Precision : 16-bit
Duration : 00:03:20.29 = 8832833 samples = 15021.8 CDDA sectors
File Size : 8.63M
Bit Rate : 345k
Sample Encoding: MPEG audio (layer I, II or III)
Comments :
Title=Hyperion
Artist=Armory
Album=The Search
Tracknumber=2/11
Year=2016
Genre=Rock
Discnumber=1/1



Register


Go to the top of the page
  Insert nick Quick quote
+Quote Post
 
Start new topic
Replies (1 - 6)
post Jul 13 2018, 03:39:09
Post #2

Аннигилятор пивА
Group Icon
Group: V.I.P
Posts: 47,445
Releases: 14300
From: Koenigsberg - TILZIT
On Forums: 12 years 1 month
Thanks: 316614 time(s)
Russian Federation


Чумачечче крутой альбом, ни одного медляка и все трэки весьма технично-разнообразно шпилят классический спидак со всякими вкусными замутками-приблудками, позволю себе добавить в жанр тег "техникал", ибо группа заслужила, в наше время такое ооочень редко

MIRROR
Register

Register



Go to the top of the page
  Insert nick Quick quote
+Quote Post
post Jul 13 2018, 10:10:30
Post #3

Аннигилятор пивА
Group Icon
Group: V.I.P
Posts: 47,445
Releases: 14300
From: Koenigsberg - TILZIT
On Forums: 12 years 1 month
Thanks: 316614 time(s)
Russian Federation


трейлер шикарнейший, (IMG:style_emoticons/default/pray.gif) ажно в душе потеплело и лампово заностальгировало... и альбом оправдал все чаяния
Go to the top of the page
  Insert nick Quick quote
+Quote Post
post Jul 13 2018, 17:06:53
Post #4

Маньяк
**********
Group: Металариец
Posts: 1,128
Releases: 0
From: Dnipro
On Forums: 10 years 1 week
Thanks: 299 time(s)
Ukraine


Это нужно заценить (IMG:style_emoticons/default/20.gif)
Go to the top of the page
  Insert nick Quick quote
+Quote Post
post Jul 13 2018, 20:36:37
Post #5

Правь статус, ####!111
**************
Group: Металариец
Posts: 2,257
Releases: 0
From: Одесса
On Forums: 10 years 4 months
Thanks: 848 time(s)
Ukraine


technical (IMG:style_emoticons/default/hmm.gif)
Go to the top of the page
  Insert nick Quick quote
+Quote Post
post Yesterday, 16:05:47
Post #6

Перевозчик
**************
Group: Металариец
Posts: 2,745
Releases: 0
On Forums: 10 years 2 weeks
Thanks: 567 time(s)
Russian Federation


А чё звук-то такой мерзко-унитазный?
Go to the top of the page
  Insert nick Quick quote
+Quote Post
post Yesterday, 17:00:34
Post #7

Group: Подсевший
Posts: 15
Releases: 0
On Forums: 1 week 1 day
Thanks: 14 time(s)
Russian Federation


Крайне убедительный материал с не самым лучшим, но терпимым звуком. Некоторые мелодические ходы и налет техничности с характерным вокалом напомнили ранний Anacrusis, с учётом того, что общий уклон делается в сторону Agent Steel. Действительно редкая вещь на нынешние реалии.


Thanks:
Go to the top of the page
  Insert nick Quick quote
+Quote Post

Reply to this topicStart new topic
1 User(s) are reading this topic (1 Guests and 0 Anonymous Users)
0 Members:

 



- Lo-Fi Version Support form
Copyrights and abuse reports form
Time is now: 23rd July 2018 - 18:25:06